<?xml version="1.0" standalone="no"?>
<!DOCTYPE svg PUBLIC "-//W3C//DTD SVG 1.1//EN" "http://www.w3.org/Graphics/SVG/1.1/DTD/svg11.dtd" >
<svg xmlns="http://www.w3.org/2000/svg" xmlns:xlink="http://www.w3.org/1999/xlink" version="1.1">
<metadata>
Created by FontForge 20170731 at Wed Apr 19 09:43:56 2023
 By Aleksey,,,
(C)2002 House Industries/Brand Design Co. Inc.
</metadata>
<defs>
<font id="NeutraTextTF-BoldSC" horiz-adv-x="1024" >
  <font-face 
    font-family="Neutra Text TF SC"
    font-weight="700"
    font-stretch="normal"
    units-per-em="2048"
    panose-1="2 0 0 0 0 0 0 0 0 0"
    ascent="1638"
    descent="-410"
    x-height="1069"
    cap-height="1393"
    bbox="-123 -492 2736 1974"
    underline-thickness="40"
    underline-position="-312"
    unicode-range="U+000D-FB02"
  />
<missing-glyph 
 />
    <glyph glyph-name="fi" unicode="fi" horiz-adv-x="1452" 
d="M1055 0v1069h278v-1069h-278zM115 0v1069h743v-244h-465v-254h416v-243h-416v-328h-278z" />
    <glyph glyph-name="fl" unicode="fl" horiz-adv-x="1882" 
d="M1051 0v1069h278v-827h471v-242h-749zM115 0v1069h743v-244h-465v-254h416v-243h-416v-328h-278z" />
    <glyph glyph-name="ff" unicode="ff" horiz-adv-x="1871" 
d="M1051 0v1069h743v-244h-465v-254h416v-243h-416v-328h-278zM115 0v1069h743v-244h-465v-254h416v-243h-416v-328h-278z" />
    <glyph glyph-name="ffi" unicode="ffi" horiz-adv-x="2387" 
d="M1991 0v1069h278v-1069h-278zM1051 0v1069h743v-244h-465v-254h416v-243h-416v-328h-278zM115 0v1069h743v-244h-465v-254h416v-243h-416v-328h-278z" />
    <glyph glyph-name="ffl" unicode="ffl" horiz-adv-x="2818" 
d="M1987 0v1069h278v-827h471v-242h-749zM1051 0v1069h743v-244h-465v-254h416v-243h-416v-328h-278zM115 0v1069h743v-244h-465v-254h416v-243h-416v-328h-278z" />
    <glyph glyph-name=".notdef" 
 />
    <glyph glyph-name=".notdef" 
 />
    <glyph glyph-name=".null" horiz-adv-x="0" 
 />
    <glyph glyph-name="nonmarkingreturn" horiz-adv-x="682" 
 />
    <glyph glyph-name="CR" unicode="&#xd;" horiz-adv-x="409" 
 />
    <glyph glyph-name="space" unicode=" " horiz-adv-x="409" 
 />
    <glyph glyph-name="exclam" unicode="!" horiz-adv-x="579" 
d="M180 473l-45 920h309l-45 -920h-219zM291 -12q-72 0 -123 49.5t-51 124.5q0 74 51 123t123 49q70 0 121 -49t51 -123q0 -75 -50.5 -124.5t-121.5 -49.5z" />
    <glyph glyph-name="quotedbl" unicode="&#x22;" horiz-adv-x="835" 
d="M498 887l-33 506h297l-31 -506h-233zM104 887l-30 506h295l-31 -506h-234z" />
    <glyph glyph-name="numbersign" unicode="#" 
d="M252 860h-113v209h166l49 199h209l-49 -199h143l50 199h208l-49 -199h109v-209h-160l-39 -153h109v-209h-162l-51 -207h-209l51 207h-145l-52 -207h-208l51 207h-111v209h164zM604 860h-143l-39 -153v0v0h1v0h1v0h1h1h1h1h1h1h1h1h1h1h1h1h1h1h1h1h1h1h1h1h1h1h1h1h1h1h1
h2h1h1h1h1h1h2h1h1h1h2h1h1h1h2h1h1h2h1h2h1h1h2h1h2h1h1h2h1h2h1h2h1h2h2h1h2h1h2h1h2h2h1h2h2h1h2h2h1h2h2h1h2h2h2h1h2h2h2h1h2h2h2h2h2h2h1h2h10z" />
    <glyph glyph-name="dollar" unicode="$" 
d="M446 -14q-79 7 -143.5 28.5t-110.5 57t-78.5 74.5t-60.5 90l203 114q39 -68 80 -104t110 -47v0v0v1v0v0v1v0v1v0v1v0v1v1v1v1v1v1v1v1v1v1v1v1v1v1v1v1v1v1v1v1v1v1v1v1v1v1v1v1v1v1v1v1v1v1v1v1v1v1v1v1v1v1v1v2v1v1v1v1v1v1v2v1v1v1v1v1v2v1v1v1v2v1v1v1v2v1v1v2v1v1v2
v1v1v2v1v1v2v1v1v2v1v2v1v1v2v1v2v1v2v1v1v2v1v2v1v2v1v2v1v2v1v2v2v1v2v1v2v1v2v2v1v2v1v2v2v1v2v1v2v2v1v2v2v1v2v2v1v2v2v1v2v2v2v1v2v2v2v1v2v2v2v1v2v2v2v2v1v2v2v2v2v1v2v2v2v2v2v2v1v2v2v2v10q-185 57 -261 137.5t-76 206.5t86 208.5t251 94.5v207h138v-211
q179 -26 295 -180l-179 -135q-54 78 -116 100v-204q352 -109 352 -359q0 -297 -352 -319v-222h-138v224zM446 879q-88 -13 -88 -78q0 -38 19 -60.5t69 -40.5v179zM584 199q52 9 74 31t22 59q0 38 -20 62.5t-76 45.5v0v0v0v-1v0v0v-1v0v-1v0v-1v-1v-1v-1v-1v-1v-1v-1v-1v-1
v-1v-1v-1v-1v-1v-1v-1v-1v-1v-1v-1v-1v-1v-1v-1v-1v-1v-1v-1v-1v-1v-1v-2v-1v-1v-1v-1v-1v-1v-1v-1v-2v-1v-1v-1v-1v-1v-2v-1v-1v-1v-2v-1v-1v-1v-2v-1v-1v-2v-1v-1v-2v-1v-1v-2v-1v-1v-2v-1v-2v-1v-1v-2v-1v-2v-1v-2v-1v-2v-1v-2v-1v-2v-1v-2v-1v-2v-1v-2v-1v-2v-2v-1v-2
v-1v-2v-1v-2v-2v-1v-2v-2v-1v-2v-2v-1v-2v-2v-1v-2v-2v-1v-2v-2v-2v-1v-2v-2v-1v-2v-2v-2v-2v-1v-2v-2v-2v-2v-1v-2v-2v-2v-2v-1v-2v-9z" />
    <glyph glyph-name="percent" unicode="%" horiz-adv-x="1536" 
d="M328 444q-128 0 -213.5 91t-85.5 231q0 139 85.5 230t213.5 91q127 0 212 -91t85 -230q0 -140 -85 -231t-212 -91zM293 0l676 1069h272l-676 -1069h-272zM1210 -18q-128 0 -213.5 90.5t-85.5 230.5q0 139 85.5 230.5t213.5 91.5q127 0 212 -91.5t85 -230.5
q0 -140 -85 -230.5t-212 -90.5zM328 643q39 0 60.5 32.5t21.5 90.5t-21.5 90.5t-60.5 32.5t-60.5 -32.5t-21.5 -90.5t21.5 -90.5t60.5 -32.5zM1210 180q39 0 60.5 32.5t21.5 90.5t-21.5 90.5t-60.5 32.5t-60.5 -32.5t-21.5 -90.5t21.5 -90.5t60.5 -32.5z" />
    <glyph glyph-name="ampersand" unicode="&#x26;" horiz-adv-x="1216" 
d="M678 575l158 -190q40 73 43 178h237q-3 -212 -125 -366l164 -197h-311l-39 47q-124 -65 -273 -65q-212 0 -331 92t-119 243q0 105 59 171.5t193 127.5q-68 104 -68 211q0 113 86.5 186.5t231.5 73.5q136 0 218.5 -69t82.5 -187q0 -153 -207 -256zM563 715q52 27 72 51.5
t20 56.5q0 30 -19.5 49t-51.5 19q-33 0 -54.5 -20t-21.5 -50q0 -21 9 -41.5t17 -30.5t27 -32zM657 223l-213 256q-51 -28 -69.5 -60.5t-18.5 -80.5q0 -61 50 -99t129 -38q61 0 122 22z" />
    <glyph glyph-name="quotesingle" unicode="'" horiz-adv-x="442" 
d="M104 887l-30 506h295l-31 -506h-234z" />
    <glyph glyph-name="parenleft" unicode="(" horiz-adv-x="614" 
d="M401 -135q-75 77 -129.5 150t-107.5 173.5t-81 227t-28 272.5t28 272t81 227t108 174t129 150l170 -129q-119 -155 -172 -315t-53 -379q0 -218 53 -378.5t172 -315.5z" />
    <glyph glyph-name="parenright" unicode=")" horiz-adv-x="614" 
d="M213 -135l-170 129q119 155 172 315.5t53 378.5q0 219 -53 379t-172 315l170 129q74 -77 129 -150t108 -174t81 -227t28 -272t-28 -272.5t-81 -227t-107.5 -173.5t-129.5 -150z" />
    <glyph glyph-name="asterisk" unicode="*" horiz-adv-x="870" 
d="M313 737l60 228l-168 -168l-119 204l231 64l-231 63l119 205l168 -168l-60 228h242l-59 -228l168 168l120 -205l-237 -63l237 -64l-120 -204l-168 168l59 -228h-242z" />
    <glyph glyph-name="plus" unicode="+" 
d="M635 424v-266h-248v266h-258v242h258v266h248v-266h258v-242h-258z" />
    <glyph glyph-name="comma" unicode="," horiz-adv-x="409" 
d="M59 -236l78 246q-98 45 -98 148q0 68 48.5 113.5t117.5 45.5q68 0 116 -46t48 -117q0 -12 -1.5 -24t-3.5 -20.5t-7 -22t-7 -19.5t-9.5 -21.5t-9.5 -18.5t-11.5 -20.5t-10.5 -19.5l-119 -224h-131z" />
    <glyph glyph-name="hyphen" unicode="-" horiz-adv-x="618" 
d="M74 373v245h471v-245h-471z" />
    <glyph glyph-name="hyphen" unicode="&#xad;" horiz-adv-x="618" 
d="M74 373v245h471v-245h-471z" />
    <glyph glyph-name="period" unicode="." horiz-adv-x="409" 
d="M205 -12q-69 0 -117.5 47.5t-48.5 118.5t48.5 117t117.5 46q68 0 116 -46t48 -117t-48.5 -118.5t-115.5 -47.5z" />
    <glyph glyph-name="slash" unicode="/" horiz-adv-x="827" 
d="M-33 -262l572 1741h270l-571 -1741h-271z" />
    <glyph glyph-name="zero" unicode="0" 
d="M512 -18q-204 0 -331.5 152.5t-127.5 402.5q0 251 127 400.5t332 149.5q206 0 332.5 -149.5t126.5 -400.5t-127 -403t-332 -152zM512 227q166 0 166 310q0 305 -166 305t-166 -305q0 -151 42 -230.5t124 -79.5z" />
    <glyph glyph-name="one" unicode="1" 
d="M391 229v611h-221v229h502v-840h219v-229h-737v229h237z" />
    <glyph glyph-name="two" unicode="2" 
d="M45 0v23l430 450q73 76 106 135t33 115q0 52 -29 82.5t-87 30.5q-108 0 -170 -154l-252 70q42 158 154 246.5t278 88.5q179 0 285 -97.5t106 -254.5q0 -166 -184 -360l-66 -70q-15 -16 -39 -35t-40 -30l-17 -11q66 9 117 9h229v-238h-854z" />
    <glyph glyph-name="three" unicode="3" 
d="M500 -18q-331 0 -445 270l238 110q29 -64 72.5 -98.5t123.5 -34.5q74 0 116 40t42 104q0 66 -46 108.5t-130 42.5q-85 0 -152 -26l-12 18l148 219q14 20 38.5 46.5t42.5 43.5l17 17q-103 -15 -156 -15h-241v242h778v-22l-172 -252q-18 -26 -41.5 -49.5t-38.5 -33.5
l-14 -10q122 -31 194 -119.5t72 -228.5q0 -179 -123.5 -275.5t-310.5 -96.5z" />
    <glyph glyph-name="four" unicode="4" 
d="M821 352h131v-219h-131v-133h-266v133h-500v215l744 731h22v-727zM567 340v121q0 26 2.5 58.5t5.5 51.5l3 19q-51 -65 -86 -98l-95 -89q-18 -17 -43 -35.5t-41 -27.5l-16 -10q68 10 123 10h147z" />
    <glyph glyph-name="five" unicode="5" 
d="M504 -18q-161 0 -274.5 72t-166.5 171l232 127q67 -123 194 -123q68 0 112 37t44 96q0 67 -51 104.5t-148 37.5q-136 0 -268 -76l-16 8v633h674v-240h-439v-124q44 18 117 18q194 0 305 -101t111 -266q0 -170 -117 -272t-309 -102z" />
    <glyph glyph-name="six" unicode="6" 
d="M510 -18q-190 0 -313 114t-123 281q0 76 27 145.5t85 157.5l265 389h313l-152 -219q-19 -27 -48 -57.5t-48 -46.5l-20 -17q33 10 73 10q161 0 270 -101t109 -263q0 -165 -122.5 -279t-315.5 -114zM508 225q78 0 117 45t39 109q0 67 -38 110t-118 43q-73 0 -115.5 -44
t-42.5 -109q0 -61 43.5 -107.5t114.5 -46.5z" />
    <glyph glyph-name="seven" unicode="7" 
d="M162 0l393 827h-471v242h874v-22l-493 -1047h-303z" />
    <glyph glyph-name="eight" unicode="8" 
d="M287 627q-115 68 -115 192q0 116 100 192t240 76t239 -76t99 -192q0 -123 -113 -192q92 -38 147.5 -108t55.5 -171q0 -160 -117.5 -263t-310.5 -103q-192 0 -309 103t-117 263q0 101 55 171t146 108zM512 707q36 0 61 21.5t25 57.5t-25 58t-61 22t-61 -22t-25 -58
t25 -57.5t61 -21.5zM512 219q63 0 102 41t39 102t-39 102.5t-102 41.5t-102 -41.5t-39 -102.5t39 -102t102 -41z" />
    <glyph glyph-name="nine" unicode="9" 
d="M233 0l170 219q21 29 50.5 59.5t48.5 45.5l20 16q-30 -10 -67 -10q-161 0 -272 101t-111 263q0 164 124.5 278.5t317.5 114.5q190 0 313 -114t123 -281q0 -153 -123 -315l-284 -377h-310zM516 537q73 0 115.5 44t42.5 109q0 61 -43.5 107.5t-114.5 46.5q-78 0 -119 -45.5
t-41 -108.5q0 -67 40 -110t120 -43z" />
    <glyph glyph-name="colon" unicode=":" horiz-adv-x="409" 
d="M205 467q-69 0 -117.5 47t-48.5 119q0 70 49 117t117 47q67 0 115.5 -47.5t48.5 -116.5q0 -72 -48 -119t-116 -47zM205 -12q-69 0 -117.5 47.5t-48.5 118.5t48.5 117t117.5 46q68 0 116 -46t48 -117t-48.5 -118.5t-115.5 -47.5z" />
    <glyph glyph-name="semicolon" unicode=";" horiz-adv-x="409" 
d="M205 467q-69 0 -117.5 47t-48.5 119q0 70 49 117t117 47q67 0 115.5 -47.5t48.5 -116.5q0 -72 -48 -119t-116 -47zM59 -236l78 246q-98 45 -98 148q0 68 48.5 113.5t117.5 45.5q68 0 116 -46t48 -117q0 -12 -1.5 -24t-3.5 -20.5t-7 -22t-7 -19.5t-9.5 -21.5t-9.5 -18.5
t-11.5 -20.5t-10.5 -19.5l-119 -224h-131z" />
    <glyph glyph-name="semicolon" unicode="&#x37e;" horiz-adv-x="409" 
d="M205 467q-69 0 -117.5 47t-48.5 119q0 70 49 117t117 47q67 0 115.5 -47.5t48.5 -116.5q0 -72 -48 -119t-116 -47zM59 -236l78 246q-98 45 -98 148q0 68 48.5 113.5t117.5 45.5q68 0 116 -46t48 -117q0 -12 -1.5 -24t-3.5 -20.5t-7 -22t-7 -19.5t-9.5 -21.5t-9.5 -18.5
t-11.5 -20.5t-10.5 -19.5l-119 -224h-131z" />
    <glyph glyph-name="less" unicode="&#x3c;" 
d="M834 106l-713 383v21l713 379v-240l-302 -151l302 -152v-240z" />
    <glyph glyph-name="equal" unicode="=" 
d="M123 571v236h778v-236h-778zM123 236v235h778v-235h-778z" />
    <glyph glyph-name="greater" unicode="&#x3e;" 
d="M190 106v240l302 152l-302 151v240l713 -383v-21z" />
    <glyph glyph-name="question" unicode="?" horiz-adv-x="1050" 
d="M356 473v326h95q118 0 173.5 55t55.5 139q0 68 -48 120t-124 52q-80 0 -128.5 -33t-88.5 -100l-221 129q56 122 167 186t271 64q106 0 194 -35t144 -93.5t86.5 -133t30.5 -156.5q0 -165 -90.5 -269.5t-258.5 -129.5v-121h-258zM483 -12q-72 0 -123 49.5t-51 124.5
q0 74 51 123t123 49q70 0 121 -49t51 -123q0 -75 -50.5 -124.5t-121.5 -49.5z" />
    <glyph glyph-name="at" unicode="@" horiz-adv-x="1894" 
d="M977 -424q-257 0 -459 97.5t-320 287t-118 442.5q0 148 47 281t130.5 234.5t194 175.5t242.5 112.5t271 38.5q189 0 347 -55t269 -153.5t172.5 -241t61.5 -312.5q0 -238 -98.5 -365.5t-280.5 -127.5q-108 0 -179 36t-106 121q-83 -165 -279 -165q-153 0 -255.5 114
t-102.5 293t101.5 295.5t252.5 116.5q154 0 222 -123l-5 102h267v-461q0 -68 21.5 -98.5t72.5 -30.5q135 0 135 289q0 282 -161.5 419.5t-454.5 137.5q-283 0 -458 -173t-175 -457q0 -289 166.5 -455t474.5 -166q165 0 325 57l86 -192q-99 -39 -192.5 -56.5t-214.5 -17.5z
M950 205q61 0 101.5 53.5t40.5 130.5t-40.5 130.5t-101.5 53.5q-70 0 -111.5 -50t-41.5 -134t41.5 -134t111.5 -50z" />
    <glyph glyph-name="A" unicode="A" horiz-adv-x="1359" 
d="M43 0l612 1405h25l637 -1405h-301l-66 158h-565l-66 -158h-276zM481 397h367l-100 242q-18 44 -39 106.5t-33 102.5l-12 41q-41 -152 -82 -250z" />
    <glyph glyph-name="B" unicode="B" horiz-adv-x="1249" 
d="M145 0v1393h539q188 0 297 -103.5t109 -257.5q0 -95 -52 -160.5t-145 -95.5q140 -33 211.5 -123t71.5 -223q0 -190 -126.5 -310t-340.5 -120h-564zM432 879h221q69 0 111.5 35.5t42.5 95.5q0 61 -37 96t-102 35h-236v-262zM432 252h264q87 0 139 52.5t52 139.5
q0 86 -55 138.5t-152 52.5h-248v-383z" />
    <glyph glyph-name="C" unicode="C" horiz-adv-x="1464" 
d="M815 -18q-148 0 -280 54t-228.5 148t-152.5 227t-56 285t56 285t152.5 226.5t228.5 147.5t280 54q190 0 327 -69.5t230 -215.5l-219 -155q-52 84 -137.5 133t-200.5 49q-187 0 -304.5 -129t-117.5 -326t117.5 -327.5t304.5 -130.5q86 0 155.5 27.5t115.5 70t88 106.5
l223 -153q-94 -146 -240.5 -226.5t-341.5 -80.5z" />
    <glyph glyph-name="D" unicode="D" horiz-adv-x="1402" 
d="M145 0v1393h428q212 0 379 -87.5t261 -247t94 -362.5t-93.5 -362t-260.5 -246.5t-380 -87.5h-428zM432 252h127q224 0 337.5 120.5t113.5 323.5q0 204 -113.5 324.5t-337.5 120.5h-127v-889z" />
    <glyph glyph-name="E" unicode="E" horiz-adv-x="1216" 
d="M145 0v1393h922v-252h-635v-443h559v-245h-559v-201h664v-252h-951z" />
    <glyph glyph-name="F" unicode="F" horiz-adv-x="1138" 
d="M145 0v1393h897v-252h-610v-461h555v-256h-555v-424h-287z" />
    <glyph glyph-name="G" unicode="G" horiz-adv-x="1513" 
d="M854 -18q-168 0 -309.5 54t-239.5 148.5t-152.5 226.5t-54.5 285q0 204 89.5 366.5t252 254.5t369.5 92q337 0 506 -192l-195 -193q-61 62 -130 94.5t-181 32.5q-187 0 -301.5 -128.5t-114.5 -326.5q0 -201 123.5 -329.5t337.5 -128.5q167 0 272 51v205h-335v251h598
v-602q-73 -60 -218 -110.5t-317 -50.5z" />
    <glyph glyph-name="H" unicode="H" horiz-adv-x="1460" 
d="M145 0v1393h287v-713h596v713h287v-1393h-287v424h-596v-424h-287z" />
    <glyph glyph-name="I" unicode="I" horiz-adv-x="587" 
d="M152 0v1393h286v-1393h-286z" />
    <glyph glyph-name="J" unicode="J" horiz-adv-x="1015" 
d="M457 -18q-161 0 -267.5 72t-162.5 190l233 141q21 -37 35 -58t36.5 -44.5t50 -34t62.5 -10.5q76 0 115 39.5t39 140.5v975h287v-979q0 -216 -115 -324t-313 -108z" />
    <glyph glyph-name="K" unicode="K" horiz-adv-x="1329" 
d="M414 678q66 148 118 217l369 498h326l-467 -631l524 -762h-346l-371 547l-135 -162v-385h-287v1393h287v-482q0 -75 -18 -233z" />
    <glyph glyph-name="L" unicode="L" horiz-adv-x="1148" 
d="M145 0v1393h287v-1141h631v-252h-918z" />
    <glyph glyph-name="M" unicode="M" horiz-adv-x="1699" 
d="M145 0v1407h23l686 -754l676 754h24v-1407h-276v522q0 42 2.5 103t5.5 101l2 40q-83 -123 -149 -197l-277 -309h-26l-277 309q-29 33 -66.5 82t-60.5 82l-22 33q10 -150 10 -244v-522h-275z" />
    <glyph glyph-name="N" unicode="N" horiz-adv-x="1435" 
d="M1262 -12l-703 659q-31 29 -72.5 77t-67.5 81l-26 33q21 -154 21 -254v-584h-269v1405h29l703 -660q30 -28 71 -75.5t66 -81.5l26 -33q-18 158 -18 254v584h268v-1405h-28z" />
    <glyph glyph-name="O" unicode="O" horiz-adv-x="1638" 
d="M819 -18q-149 0 -282 54t-229.5 148t-153 227t-56.5 285t56.5 285.5t153 227t230 148t281.5 54.5t281.5 -54.5t230 -148t153 -227t56.5 -285.5t-56.5 -285t-153 -227t-229.5 -148t-282 -54zM819 238q188 0 307 130.5t119 327.5t-119 328t-307 131t-307 -131t-119 -328
t119 -327.5t307 -130.5z" />
    <glyph glyph-name="P" unicode="P" horiz-adv-x="1230" 
d="M145 0v1393h385q292 0 457.5 -143.5t165.5 -395.5t-166 -394.5t-457 -142.5h-98v-317h-287zM432 569h90q173 0 254.5 70.5t81.5 214.5q0 145 -82.5 216t-253.5 71h-90v-572z" />
    <glyph glyph-name="Q" unicode="Q" horiz-adv-x="1638" 
d="M1343 197l195 -224l-190 -157l-207 237q-151 -71 -322 -71q-149 0 -282 54t-229.5 148t-153 227t-56.5 285t56.5 285.5t153 227t230 148t281.5 54.5t281.5 -54.5t230 -148t153 -227t56.5 -285.5q0 -147 -51.5 -274.5t-145.5 -224.5zM961 258l-166 191l192 157l176 -203
q82 118 82 293q0 197 -119 328t-307 131t-307 -131t-119 -328t119 -327.5t307 -130.5q81 0 142 20z" />
    <glyph glyph-name="R" unicode="R" horiz-adv-x="1257" 
d="M885 434l289 -434h-332l-230 352q-41 -6 -82 -6h-98v-346h-287v1393h385q294 0 458.5 -137t164.5 -390q0 -310 -268 -432zM432 596h90q177 0 256.5 62t79.5 208t-81 210.5t-255 64.5h-90v-545z" />
    <glyph glyph-name="S" unicode="S" horiz-adv-x="1099" 
d="M547 -18q-190 0 -322.5 79.5t-199.5 212.5l233 136q51 -83 117.5 -128.5t165.5 -45.5q88 0 141 39.5t53 101.5q0 24 -5.5 43.5t-20.5 37t-28.5 29.5t-42.5 27.5t-50 25t-62 27.5l-71 31q-83 35 -142 72.5t-107 88.5t-71.5 118.5t-23.5 152.5q0 164 115 271.5t304 107.5
q140 0 239.5 -54t168.5 -175l-223 -144q-37 66 -80 94.5t-105 28.5t-99.5 -35t-37.5 -88q0 -61 38.5 -96t137.5 -78l72 -31q98 -42 163.5 -81.5t117.5 -92t76 -120.5t24 -156q0 -188 -132.5 -293.5t-342.5 -105.5z" />
    <glyph glyph-name="T" unicode="T" horiz-adv-x="1212" 
d="M463 0v1141h-397v252h1081v-252h-397v-1141h-287z" />
    <glyph glyph-name="U" unicode="U" horiz-adv-x="1404" 
d="M705 -18q-122 0 -224.5 32.5t-179 96t-119.5 164t-43 229.5v889h287v-873q0 -150 67 -215t212 -65q143 0 208.5 65t65.5 215v873h287v-889q0 -171 -75 -290.5t-199.5 -175.5t-286.5 -56z" />
    <glyph glyph-name="V" unicode="V" horiz-adv-x="1359" 
d="M678 -12l-635 1405h307l240 -537q24 -53 51 -131.5t42 -130.5l15 -53q54 194 107 315l233 537h279l-610 -1405h-29z" />
    <glyph glyph-name="W" unicode="W" horiz-adv-x="1961" 
d="M559 -12l-514 1405h303l203 -559q16 -43 34.5 -106t28.5 -104l11 -42q41 158 86 252l268 571h29l272 -571q20 -42 41.5 -105t32.5 -105l12 -42q39 156 74 252l200 559h279l-506 -1405h-29l-313 671q-16 35 -35.5 86.5t-31.5 86.5l-11 34q-43 -129 -80 -207l-325 -671h-29
z" />
    <glyph glyph-name="X" unicode="X" horiz-adv-x="1351" 
d="M55 0l455 766l-379 627h326l141 -240q18 -31 41 -78.5t37 -79.5l14 -32q39 118 80 190l135 240h305l-372 -629l462 -764h-327l-219 371q-19 32 -43.5 81t-38.5 82l-15 33q-43 -122 -86 -196l-215 -371h-301z" />
    <glyph glyph-name="Y" unicode="Y" horiz-adv-x="1396" 
d="M571 0v442l-528 951h317l246 -449q24 -44 52 -110t44 -110l17 -44q55 164 108 264l236 449h293l-496 -930v-463h-289z" />
    <glyph glyph-name="Z" unicode="Z" horiz-adv-x="1208" 
d="M55 0v25l639 1116h-526v252h969v-25l-637 -1116h602v-252h-1047z" />
    <glyph glyph-name="bracketleft" unicode="[" horiz-adv-x="614" 
d="M84 -127v1626h485v-233h-209v-1160h209v-233h-485z" />
    <glyph glyph-name="backslash" unicode="\" horiz-adv-x="825" 
d="M563 -127l-571 1626h270l572 -1626h-271z" />
    <glyph glyph-name="bracketright" unicode="]" horiz-adv-x="614" 
d="M43 -127v233h209v1160h-209v233h485v-1626h-485z" />
    <glyph glyph-name="asciicircum" unicode="^" horiz-adv-x="899" 
d="M111 915l327 492h23l327 -492h-221l-118 146l-117 -146h-221z" />
    <glyph glyph-name="underscore" unicode="_" horiz-adv-x="579" 
d="M-4 -262v246h588v-246h-588z" />
    <glyph glyph-name="grave" unicode="`" 
d="M406 1024l-213 385h315l106 -385h-208z" />
    <glyph glyph-name="a" unicode="a" horiz-adv-x="1105" 
d="M39 0l502 1081h22l504 -1081h-289l-37 86h-395l-37 -86h-270zM422 274h250l-45 107q-21 49 -41 105.5t-30 87.5l-9 32q-29 -114 -78 -225z" />
    <glyph glyph-name="b" unicode="b" horiz-adv-x="1048" 
d="M115 0v1069h446q152 0 240 -77t88 -189q0 -159 -139 -211q105 -25 162 -98.5t57 -184.5q0 -145 -102 -227t-275 -82h-477zM383 678h154q36 0 60 23t24 61q0 37 -24 58.5t-60 21.5h-154v-164zM383 229h190q56 0 88.5 33t32.5 86q0 54 -32.5 87.5t-88.5 33.5h-190v-240z
" />
    <glyph glyph-name="c" unicode="c" horiz-adv-x="1204" 
d="M651 -18q-170 0 -299 73t-196.5 198t-67.5 282t69.5 283t196.5 197.5t289 71.5q308 0 457 -233l-221 -147q-83 135 -236 135q-124 0 -197 -85.5t-73 -221.5q0 -135 74 -221.5t202 -86.5q184 0 258 152l226 -129q-62 -125 -186.5 -196.5t-295.5 -71.5z" />
    <glyph glyph-name="d" unicode="d" horiz-adv-x="1144" 
d="M115 0v1069h385q158 0 284 -64t199.5 -186.5t73.5 -283.5q0 -160 -73 -282.5t-199.5 -187.5t-284.5 -65h-385zM393 242h92q145 0 216 77t71 216q0 138 -71 215t-216 77h-92v-585z" />
    <glyph glyph-name="e" unicode="e" horiz-adv-x="983" 
d="M115 0v1069h759v-240h-481v-231h402v-227h-402v-131h502v-240h-780z" />
    <glyph glyph-name="f" unicode="f" horiz-adv-x="940" 
d="M115 0v1069h743v-244h-465v-254h416v-243h-416v-328h-278z" />
    <glyph glyph-name="g" unicode="g" horiz-adv-x="1198" 
d="M678 -18q-135 0 -246.5 41.5t-186.5 115t-116 175.5t-41 221q0 161 75 288t203 195.5t285 68.5q149 0 244.5 -42.5t165.5 -116.5l-178 -185q-87 99 -232 99q-128 0 -203 -87.5t-75 -219.5q0 -67 16 -122.5t50.5 -100.5t95.5 -70t143 -25q92 0 166 29v123h-217v223h471
v-504q-60 -41 -172.5 -73.5t-247.5 -32.5z" />
    <glyph glyph-name="h" unicode="h" horiz-adv-x="1181" 
d="M115 0v1069h278v-498h395v498h279v-1069h-279v324h-395v-324h-278z" />
    <glyph glyph-name="i" unicode="i" horiz-adv-x="516" 
d="M119 0v1069h278v-1069h-278z" />
    <glyph glyph-name="j" unicode="j" horiz-adv-x="868" 
d="M391 -18q-262 0 -364 227l225 127q34 -63 59.5 -88t73.5 -25q96 0 96 119v727h279v-735q0 -180 -100 -266t-269 -86z" />
    <glyph glyph-name="k" unicode="k" horiz-adv-x="1134" 
d="M371 522q81 153 147 246l221 301h305l-364 -475l414 -594h-330l-275 399l-96 -110v-289h-278v1069h278v-278q0 -107 -22 -269z" />
    <glyph glyph-name="l" unicode="l" horiz-adv-x="946" 
d="M115 0v1069h278v-827h471v-242h-749z" />
    <glyph glyph-name="m" unicode="m" horiz-adv-x="1343" 
d="M115 0v1083h20l541 -573l530 573h21v-1083h-269v326q0 39 4 91.5t8 84.5l3 33q-67 -105 -139 -183l-152 -166h-20l-156 166q-33 35 -67 80.5t-52 73.5l-18 29q14 -121 14 -209v-326h-268z" />
    <glyph glyph-name="n" unicode="n" horiz-adv-x="1138" 
d="M1001 -16l-497 430q-36 31 -74.5 71t-59.5 64l-20 24q21 -137 21 -225v-348h-256v1083h22l494 -426q38 -34 76.5 -74t57.5 -63l19 -24q-16 139 -16 227v346h256v-1085h-23z" />
    <glyph glyph-name="o" unicode="o" horiz-adv-x="1327" 
d="M664 -18q-156 0 -287.5 70t-210 197.5t-78.5 285.5q0 120 46 224t124.5 175.5t183.5 112t222 40.5q156 0 287 -68.5t209.5 -196t78.5 -287.5q0 -158 -78.5 -285.5t-209.5 -197.5t-287 -70zM664 227q129 0 209.5 85t80.5 223q0 135 -80.5 221t-209.5 86t-210 -86t-81 -221
q0 -138 81 -223t210 -85z" />
    <glyph glyph-name="p" unicode="p" horiz-adv-x="1034" 
d="M115 0v1069h350q230 0 364 -109.5t134 -310.5q0 -199 -134 -308.5t-364 -109.5h-72v-231h-278zM393 471h66q111 0 164 41.5t53 136.5q0 94 -54.5 136t-162.5 42h-66v-356z" />
    <glyph glyph-name="q" unicode="q" horiz-adv-x="1327" 
d="M1040 -158l-153 181q-106 -41 -223 -41q-156 0 -287.5 70t-210 197.5t-78.5 285.5q0 120 46 224t124.5 175.5t183.5 112t222 40.5q156 0 287 -68.5t209.5 -196t78.5 -287.5q0 -230 -158 -385l140 -162zM664 219q17 0 53 4l-115 133l180 146l129 -152q43 73 43 185
q0 135 -80.5 221t-209.5 86t-210 -86t-81 -221q0 -138 81 -227t210 -89z" />
    <glyph glyph-name="r" unicode="r" horiz-adv-x="1058" 
d="M778 334l205 -334h-313l-150 258q-14 -2 -43 -2h-84v-256h-278v1069h362q108 0 196.5 -24.5t154.5 -74t102.5 -128.5t36.5 -183q0 -228 -189 -325zM393 492h78q110 0 160.5 38.5t50.5 128.5t-50.5 130t-160.5 40h-78v-337z" />
    <glyph glyph-name="s" unicode="s" horiz-adv-x="940" 
d="M471 -18q-157 0 -273 67.5t-171 179.5l217 127q80 -139 223 -139q58 0 94.5 21t36.5 57q0 37 -30.5 60t-114.5 57l-45 18q-147 60 -221 137.5t-74 210.5q0 139 97 224t253 85q120 0 202 -41.5t146 -142.5l-211 -121q-27 42 -57 59t-72 17t-67 -20.5t-25 -55.5
q0 -21 7 -36t25.5 -28t32.5 -20t45 -20l46 -19q67 -27 112 -49t91.5 -54t73.5 -67t44.5 -84t17.5 -108q0 -149 -107 -232t-296 -83z" />
    <glyph glyph-name="t" unicode="t" horiz-adv-x="1034" 
d="M377 0v827h-303v242h887v-242h-304v-827h-280z" />
    <glyph glyph-name="u" unicode="u" horiz-adv-x="1138" 
d="M571 -18q-211 0 -336.5 114t-125.5 326v647h278v-643q0 -197 182 -197q93 0 138 48.5t45 148.5v643h278v-647q0 -211 -126.5 -325.5t-332.5 -114.5z" />
    <glyph glyph-name="v" unicode="v" horiz-adv-x="1110" 
d="M545 -14l-510 1083h307l137 -311q24 -56 46 -122.5t32 -105.5l10 -38q33 141 88 266l138 311h282l-506 -1083h-24z" />
    <glyph glyph-name="w" unicode="w" horiz-adv-x="1536" 
d="M451 -14l-416 1083h299l121 -330q17 -47 34 -106t25 -94l8 -35q29 128 80 237l162 340h22l168 -340q25 -52 46 -111.5t30 -92.5l8 -33q29 124 68 235l119 330h276l-409 -1083h-25l-207 407q-21 42 -42 97.5t-32 90.5l-10 35q-35 -129 -84 -223l-217 -407h-24z" />
    <glyph glyph-name="x" unicode="x" horiz-adv-x="1161" 
d="M41 0l365 592l-302 477h312l88 -149q23 -38 42.5 -86t27.5 -76l8 -29q35 109 80 191l83 149h297l-297 -479l375 -590h-315l-133 213q-27 44 -53 97.5t-38 85.5l-12 32q-41 -119 -98 -215l-129 -213h-301z" />
    <glyph glyph-name="y" unicode="y" horiz-adv-x="1120" 
d="M428 0v350l-397 719h317l129 -246q25 -48 49.5 -115t36.5 -110l12 -43q44 164 97 268l123 246h295l-383 -715v-354h-279z" />
    <glyph glyph-name="z" unicode="z" horiz-adv-x="1015" 
d="M66 0v23l456 806h-377v240h801v-22l-457 -807h424v-240h-847z" />
    <glyph glyph-name="braceleft" unicode="{" horiz-adv-x="614" 
d="M475 -127q-67 0 -121.5 14t-101.5 46t-73.5 92t-26.5 143v188q0 71 -28 103.5t-89 32.5h-37v233h37q61 0 89 32t28 103v344q0 83 26.5 143t73.5 92t101.5 46t121.5 14h96v-233h-71q-41 0 -55.5 -17t-14.5 -53v-371q0 -103 -49.5 -152.5t-140.5 -64.5q91 -15 140.5 -64.5
t49.5 -152.5v-215q0 -36 14.5 -53t55.5 -17h71v-233h-96z" />
    <glyph glyph-name="bar" unicode="|" horiz-adv-x="569" 
d="M152 -129v1628h266v-1628h-266z" />
    <glyph glyph-name="braceright" unicode="}" horiz-adv-x="614" 
d="M43 -127v233h72q40 0 54.5 17t14.5 53v215q0 103 49.5 152.5t141.5 64.5q-92 15 -141.5 64.5t-49.5 152.5v371q0 36 -14.5 53t-54.5 17h-72v233h96q53 0 98 -8.5t87.5 -29t72.5 -53.5t48 -85t18 -119v-344q0 -71 28 -103t89 -32h36v-233h-36q-60 0 -88.5 -32.5
t-28.5 -103.5v-188q0 -67 -18 -119t-48 -85t-72.5 -53.5t-87.5 -29t-98 -8.5h-96z" />
    <glyph glyph-name="asciitilde" unicode="~" horiz-adv-x="835" 
d="M254 420l-186 18q7 140 69.5 213.5t157.5 73.5q61 0 129 -41q13 -8 30.5 -20t26 -17t20 -9.5t21.5 -4.5q51 0 60 92l186 -18q-7 -140 -69 -213.5t-158 -73.5q-61 0 -129 41q-13 8 -30.5 20t-26 17t-20 9.5t-22.5 4.5q-50 0 -59 -92z" />
    <glyph glyph-name="nbspace" unicode="&#xa0;" horiz-adv-x="372" 
 />
    <glyph glyph-name="exclamdown" unicode="&#xa1;" horiz-adv-x="579" 
d="M289 1405q72 0 123 -49.5t51 -124.5q0 -74 -51 -123t-123 -49q-70 0 -121 49t-51 123q0 75 50.5 124.5t121.5 49.5zM399 920l45 -920h-309l45 920h219z" />
    <glyph glyph-name="cent" unicode="&#xa2;" 
d="M647 -14v-224h-137v224q-165 22 -272 133.5t-107 271.5q0 162 107 274.5t272 133.5v205h137v-205q180 -22 275 -150l-179 -153q-38 57 -96 73v-356q59 14 109 68l172 -158q-111 -121 -281 -137zM510 219v346q-50 -19 -78.5 -64.5t-28.5 -109.5q0 -133 107 -172z" />
    <glyph glyph-name="sterling" unicode="&#xa3;" 
d="M311 436h-190v180h98q-31 81 -31 150q0 143 100 232t281 89q276 0 375 -198l-221 -133q-47 94 -139 94q-103 0 -103 -109q0 -38 31 -125h274v-180h-206q16 -62 16 -125q0 -21 -4 -57q70 -25 123 -25q43 0 70.5 14t56.5 46l166 -178q-57 -69 -120 -99t-153 -30
q-116 0 -237 90q-93 -90 -230 -90q-104 0 -168.5 54.5t-64.5 141.5t56 142t149 55q40 0 102 -15q-9 30 -31 76zM344 197q-42 28 -82 28q-55 0 -55 -41q0 -21 15 -37t40 -16q59 0 82 66z" />
    <glyph glyph-name="currency" unicode="&#xa4;" 
d="M133 565h-92v166v0v0h1v0h1v0h1h1h1h1h1h1h1h1h1h1h1h1h1h1h1h1h1h1h1h1h1h1h1h2h1h1h1h1h2h1h1h1h2h1h1h2h1h1h2h1h2h1h2h1h2h1h2h1h2h1h2h1h2h1h2h2h1h2h2h1h2h2h1h2h2h2h1h2h2h2h1h2h2h2h2h2h2h8q48 165 167.5 260.5t284.5 95.5q131 0 222 -48t155 -142l-190 -145
q-36 54 -77.5 78t-105.5 24q-125 0 -174 -123h238v-166h-266v-28v-43h266v-166h-236q48 -111 176 -111q111 0 183 125l209 -127q-61 -110 -154 -171.5t-240 -61.5q-164 0 -283 93t-169 253h-123v166h92v43v28z" />
    <glyph glyph-name="yen" unicode="&#xa5;" 
d="M375 0v150h-297v178h297v43l-15 28h-282v179h192l-247 491h313l123 -274q20 -44 35.5 -100t20.5 -90l5 -34q21 124 66 224l125 274h288l-243 -491h194v-179h-282l-15 -28v-43h297v-178h-297v-150h-278z" />
    <glyph glyph-name="brokenbar" unicode="&#xa6;" horiz-adv-x="497" 
d="M256 354q-72 0 -123 49.5t-51 124.5q0 74 51 123t123 49q70 0 121 -49t51 -123q0 -75 -50.5 -124.5t-121.5 -49.5z" />
    <glyph glyph-name="section" unicode="&#xa7;" 
d="M274 590q-75 78 -75 209q0 124 88.5 206t242.5 82q207 0 314 -155l-205 -133q-39 59 -96 59q-31 0 -48.5 -14t-17.5 -37q0 -24 14.5 -38.5t45.5 -27.5l182 -82q103 -46 159 -108t56 -152q0 -149 -174 -225q76 -86 76 -190q0 -135 -94.5 -210t-264.5 -75q-126 0 -230 54.5
t-155 140.5l211 137q22 -40 62.5 -70.5t89.5 -30.5q92 0 92 50q0 33 -53 57l-211 94q-193 86 -193 240q0 89 53.5 141.5t130.5 77.5zM621 274q29 11 43 25.5t14 38.5q0 30 -18.5 46.5t-53.5 31.5l-196 88q-1 0 -3.5 1t-3.5 1q-26 -5 -42.5 -21.5t-16.5 -40.5q0 -26 12.5 -41
t40.5 -28l219 -99q1 0 2.5 -1t2.5 -1z" />
    <glyph glyph-name="dieresis" unicode="&#xa8;" 
d="M735 1036q-61 0 -108 46t-47 110t47 110t108 46q62 0 109 -46t47 -110t-47 -110t-109 -46zM289 1036q-61 0 -108.5 46.5t-47.5 109.5t47.5 109.5t108.5 46.5q62 0 108.5 -46t46.5 -110t-46.5 -110t-108.5 -46z" />
    <glyph glyph-name="copyright" unicode="&#xa9;" horiz-adv-x="1216" 
d="M612 -10q-110 0 -211 41.5t-176.5 113.5t-120.5 175t-45 219q0 154 76.5 281t203 197t273.5 70q145 0 269.5 -70t200 -197t75.5 -281q0 -116 -44.5 -219t-119 -175t-174 -113.5t-207.5 -41.5zM612 111q175 0 296.5 119t121.5 309t-121.5 309t-296.5 119
q-179 0 -302.5 -118.5t-123.5 -309.5t123.5 -309.5t302.5 -118.5zM623 238q-138 0 -227 84.5t-89 216.5q0 133 87 219t220 86q151 0 254 -111l-145 -135q-36 45 -90 45q-45 0 -68.5 -28t-23.5 -76q0 -45 25.5 -75t70.5 -30q58 0 88 43l147 -129q-95 -110 -249 -110z" />
    <glyph glyph-name="ordfeminine" unicode="&#xaa;" horiz-adv-x="876" 
d="M532 770q-3 59 -32 86t-84 27q-42 0 -76.5 -11.5t-51 -24t-38.5 -32.5l-150 141q59 59 137 95t209 36q145 0 240.5 -83.5t95.5 -247.5v-424h-250l7 92q-75 -111 -211 -111q-114 0 -189.5 59.5t-75.5 172.5q0 111 82 168t217 57h170zM532 623h-147q-38 0 -56 -16.5
t-18 -43.5q0 -24 21 -40.5t63 -16.5q69 0 103 27t34 69v21z" />
    <glyph glyph-name="guillemotleft" unicode="&#xab;" horiz-adv-x="1032" 
d="M700 66l-194 344v16l194 338h267l-201 -346l201 -352h-267zM260 66l-194 344v16l194 338h266l-200 -346l200 -352h-266z" />
    <glyph glyph-name="logicalnot" unicode="&#xac;" horiz-adv-x="497" 
d="M256 354q-72 0 -123 49.5t-51 124.5q0 74 51 123t123 49q70 0 121 -49t51 -123q0 -75 -50.5 -124.5t-121.5 -49.5z" />
    <glyph glyph-name="registered" unicode="&#xae;" horiz-adv-x="1030" 
d="M512 518q-124 0 -227.5 57t-164.5 160t-61 230q0 194 131.5 320t321.5 126q125 0 230 -56t167 -159t62 -231q0 -192 -133.5 -319.5t-325.5 -127.5zM512 616q153 0 251.5 94t98.5 251q0 164 -97.5 258t-252.5 94q-153 0 -248.5 -94t-95.5 -258q0 -157 96 -251t248 -94z
M645 881l76 -138h-139l-56 111h-51v-111h-135v445h190q86 0 137.5 -48.5t51.5 -115.5q0 -95 -74 -143zM475 961h60q19 0 35 13t16 44q0 26 -17 39.5t-34 13.5h-60v-110z" />
    <glyph glyph-name="macron" unicode="&#xaf;" 
d="M262 1077v203h500v-203h-500z" />
    <glyph glyph-name="macron" unicode="&#x2c9;" 
d="M262 1077v203h500v-203h-500z" />
    <glyph glyph-name="degree" unicode="&#xb0;" horiz-adv-x="679" 
d="M340 549q-118 0 -202.5 79t-84.5 191q0 114 84 191t203 77q120 0 203.5 -77t83.5 -191q0 -112 -84 -191t-203 -79zM340 713q45 0 73.5 29.5t28.5 76.5t-28.5 76t-73.5 29t-73.5 -29t-28.5 -76t28.5 -76.5t73.5 -29.5z" />
    <glyph glyph-name="twosuperior" unicode="&#xb2;" horiz-adv-x="497" 
d="M256 354q-72 0 -123 49.5t-51 124.5q0 74 51 123t123 49q70 0 121 -49t51 -123q0 -75 -50.5 -124.5t-121.5 -49.5z" />
    <glyph glyph-name="threesuperior" unicode="&#xb3;" horiz-adv-x="497" 
d="M256 354q-72 0 -123 49.5t-51 124.5q0 74 51 123t123 49q70 0 121 -49t51 -123q0 -75 -50.5 -124.5t-121.5 -49.5z" />
    <glyph glyph-name="acute" unicode="&#xb4;" 
d="M410 1024l106 385h315l-213 -385h-208z" />
    <glyph glyph-name="mu" unicode="&#xb5;" horiz-adv-x="497" 
d="M256 354q-72 0 -123 49.5t-51 124.5q0 74 51 123t123 49q70 0 121 -49t51 -123q0 -75 -50.5 -124.5t-121.5 -49.5z" />
    <glyph glyph-name="mu" unicode="&#x3bc;" horiz-adv-x="497" 
d="M256 354q-72 0 -123 49.5t-51 124.5q0 74 51 123t123 49q70 0 121 -49t51 -123q0 -75 -50.5 -124.5t-121.5 -49.5z" />
    <glyph glyph-name="paragraph" unicode="&#xb6;" horiz-adv-x="1449" 
d="M625 0v498h-68q-233 0 -362 125.5t-129 314.5q0 90 32 171t91.5 145t154.5 101.5t213 37.5h748v-1393h-273v1153h-135v-1153h-272zM565 737h60v416h-60q-86 0 -141 -52t-55 -155q0 -104 55 -156.5t141 -52.5z" />
    <glyph glyph-name="periodcentered" unicode="&#xb7;" horiz-adv-x="509" 
d="M256 354q-72 0 -123 49.5t-51 124.5q0 74 51 123t123 49q70 0 121 -49t51 -123q0 -75 -50.5 -124.5t-121.5 -49.5z" />
    <glyph glyph-name="periodcentered" unicode="&#x2219;" horiz-adv-x="509" 
d="M256 354q-72 0 -123 49.5t-51 124.5q0 74 51 123t123 49q70 0 121 -49t51 -123q0 -75 -50.5 -124.5t-121.5 -49.5z" />
    <glyph glyph-name="cedilla" unicode="&#xb8;" 
d="M530 -492q-169 0 -241 123l131 80q29 -57 88 -57q31 0 52.5 18t21.5 52t-23 51.5t-61 17.5h-70v207h141v-80q78 -15 130.5 -69.5t52.5 -143.5q0 -88 -67 -143.5t-155 -55.5z" />
    <glyph glyph-name="onesuperior" unicode="&#xb9;" horiz-adv-x="497" 
d="M256 354q-72 0 -123 49.5t-51 124.5q0 74 51 123t123 49q70 0 121 -49t51 -123q0 -75 -50.5 -124.5t-121.5 -49.5z" />
    <glyph glyph-name="ordmasculine" unicode="&#xba;" horiz-adv-x="980" 
d="M492 311q-173 0 -292.5 111t-119.5 278q0 165 119.5 276t292.5 111q171 0 290 -111t119 -276q0 -167 -118.5 -278t-290.5 -111zM492 522q70 0 111.5 48t41.5 130q0 79 -41.5 126.5t-111.5 47.5q-71 0 -111.5 -47.5t-40.5 -126.5q0 -82 40.5 -130t111.5 -48z" />
    <glyph glyph-name="guillemotright" unicode="&#xbb;" horiz-adv-x="1032" 
d="M506 66l201 346l-201 352h266l195 -344v-17l-195 -337h-266zM66 66l200 346l-200 352h266l194 -344v-17l-194 -337h-266z" />
    <glyph glyph-name="onequarter" unicode="&#xbc;" horiz-adv-x="497" 
d="M256 354q-72 0 -123 49.5t-51 124.5q0 74 51 123t123 49q70 0 121 -49t51 -123q0 -75 -50.5 -124.5t-121.5 -49.5z" />
    <glyph glyph-name="onehalf" unicode="&#xbd;" horiz-adv-x="497" 
d="M256 354q-72 0 -123 49.5t-51 124.5q0 74 51 123t123 49q70 0 121 -49t51 -123q0 -75 -50.5 -124.5t-121.5 -49.5z" />
    <glyph glyph-name="threequarters" unicode="&#xbe;" horiz-adv-x="497" 
d="M256 354q-72 0 -123 49.5t-51 124.5q0 74 51 123t123 49q70 0 121 -49t51 -123q0 -75 -50.5 -124.5t-121.5 -49.5z" />
    <glyph glyph-name="questiondown" unicode="&#xbf;" horiz-adv-x="1050" 
d="M567 1405q72 0 123 -49.5t51 -124.5q0 -74 -51 -123t-123 -49q-70 0 -121 49t-51 123q0 75 50.5 124.5t121.5 49.5zM694 920v-326h-94q-118 0 -173.5 -55t-55.5 -140q0 -68 48 -120t124 -52q80 0 128.5 33t88.5 100l221 -129q-114 -249 -438 -249q-106 0 -194 35t-144 93
t-86.5 133t-30.5 156q0 165 90 270t258 130v121h258z" />
    <glyph glyph-name="Agrave" unicode="&#xc0;" horiz-adv-x="1359" 
d="M573 1532l-213 385h316l106 -385h-209zM43 0l612 1405h25l637 -1405h-301l-66 158h-565l-66 -158h-276zM481 397h367l-100 242q-18 44 -39 106.5t-33 102.5l-12 41q-41 -152 -82 -250z" />
    <glyph glyph-name="Aacute" unicode="&#xc1;" horiz-adv-x="1359" 
d="M567 1532l107 385h315l-213 -385h-209zM43 0l612 1405h25l637 -1405h-301l-66 158h-565l-66 -158h-276zM481 397h367l-100 242q-18 44 -39 106.5t-33 102.5l-12 41q-41 -152 -82 -250z" />
    <glyph glyph-name="Acircumflex" unicode="&#xc2;" horiz-adv-x="1359" 
d="M330 1532l325 442h23l326 -442h-222l-114 133l-117 -133h-221zM43 0l612 1405h25l637 -1405h-301l-66 158h-565l-66 -158h-276zM481 397h367l-100 242q-18 44 -39 106.5t-33 102.5l-12 41q-41 -152 -82 -250z" />
    <glyph glyph-name="Atilde" unicode="&#xc3;" horiz-adv-x="1359" 
d="M500 1532l-187 18q7 140 70 213.5t158 73.5q61 0 129 -41q13 -8 30.5 -20t26 -17t20 -9.5t21.5 -4.5q27 0 40.5 22.5t18.5 69.5l187 -18q-7 -140 -69.5 -213.5t-158.5 -73.5q-61 0 -129 41q-13 8 -30 19.5t-25.5 17t-20 10t-22.5 4.5q-50 0 -59 -92zM43 0l612 1405h25
l637 -1405h-301l-66 158h-565l-66 -158h-276zM481 397h367l-100 242q-18 44 -39 106.5t-33 102.5l-12 41q-41 -152 -82 -250z" />
    <glyph glyph-name="Adieresis" unicode="&#xc4;" horiz-adv-x="1359" 
d="M903 1544q-61 0 -108 46t-47 110q0 63 47 109t108 46q62 0 109 -45.5t47 -109.5t-47 -110t-109 -46zM457 1544q-61 0 -108.5 46.5t-47.5 109.5t47.5 109t108.5 46q62 0 108.5 -45.5t46.5 -109.5t-46.5 -110t-108.5 -46zM43 0l612 1405h25l637 -1405h-301l-66 158h-565
l-66 -158h-276zM481 397h367l-100 242q-18 44 -39 106.5t-33 102.5l-12 41q-41 -152 -82 -250z" />
    <glyph glyph-name="Aring" unicode="&#xc5;" horiz-adv-x="1359" 
d="M680 1479q-111 0 -187.5 72t-76.5 171q0 101 76.5 172.5t187.5 71.5t187.5 -71.5t76.5 -172.5q0 -99 -76.5 -171t-187.5 -72zM43 0l612 1405h25l637 -1405h-301l-66 158h-565l-66 -158h-276zM680 1630q38 0 63 24.5t25 67.5t-25 68t-63 25t-63 -25t-25 -68t25 -67.5
t63 -24.5zM481 397h367l-100 242q-18 44 -39 106.5t-33 102.5l-12 41q-41 -152 -82 -250z" />
    <glyph glyph-name="AE" unicode="&#xc6;" horiz-adv-x="2027" 
d="M31 0l956 1393h891v-252h-635v-443h559v-245h-559v-201h664v-252h-951v158h-516l-106 -158h-303zM608 406h348v397q0 36 5 85t11 80l5 31q-41 -106 -88 -176z" />
    <glyph glyph-name="Ccedilla" unicode="&#xc7;" horiz-adv-x="1486" 
d="M705 -10q-263 37 -435 233.5t-172 472.5q0 152 56 285t152.5 226.5t228.5 147.5t280 54q190 0 327 -69.5t230 -215.5l-219 -155q-52 84 -137.5 133t-200.5 49q-187 0 -304.5 -129t-117.5 -326t117.5 -327.5t304.5 -130.5q86 0 155.5 27.5t115.5 70t88 106.5l223 -153
q-91 -140 -229 -220t-322 -87v-62q77 -15 129.5 -69.5t52.5 -143.5q0 -88 -66.5 -143.5t-154.5 -55.5q-170 0 -242 123l131 80q29 -57 88 -57q31 0 52.5 18t21.5 52t-23 51.5t-61 17.5h-69v197z" />
    <glyph glyph-name="Egrave" unicode="&#xc8;" horiz-adv-x="1216" 
d="M528 1532l-213 385h316l106 -385h-209zM145 0v1393h922v-252h-635v-443h559v-245h-559v-201h664v-252h-951z" />
    <glyph glyph-name="Eacute" unicode="&#xc9;" horiz-adv-x="1216" 
d="M504 1532l106 385h316l-213 -385h-209zM145 0v1393h922v-252h-635v-443h559v-245h-559v-201h664v-252h-951z" />
    <glyph glyph-name="Ecircumflex" unicode="&#xca;" horiz-adv-x="1216" 
d="M276 1532l326 442h23l325 -442h-221l-115 133l-116 -133h-222zM145 0v1393h922v-252h-635v-443h559v-245h-559v-201h664v-252h-951z" />
    <glyph glyph-name="Edieresis" unicode="&#xcb;" horiz-adv-x="1216" 
d="M836 1544q-61 0 -108.5 46.5t-47.5 109.5t47.5 109t108.5 46q62 0 108.5 -45.5t46.5 -109.5t-46.5 -110t-108.5 -46zM389 1544q-61 0 -108.5 46.5t-47.5 109.5t47.5 109t108.5 46q62 0 109 -45.5t47 -109.5t-47 -110t-109 -46zM145 0v1393h922v-252h-635v-443h559v-245
h-559v-201h664v-252h-951z" />
    <glyph glyph-name="Igrave" unicode="&#xcc;" horiz-adv-x="587" 
d="M186 1532l-213 385h316l106 -385h-209zM152 0v1393h286v-1393h-286z" />
    <glyph glyph-name="Iacute" unicode="&#xcd;" horiz-adv-x="587" 
d="M190 1532l107 385h315l-213 -385h-209zM152 0v1393h286v-1393h-286z" />
    <glyph glyph-name="Icircumflex" unicode="&#xce;" horiz-adv-x="587" 
d="M-45 1532l326 442h22l326 -442h-221l-115 133l-117 -133h-221zM152 0v1393h286v-1393h-286z" />
    <glyph glyph-name="Idieresis" unicode="&#xcf;" horiz-adv-x="587" 
d="M516 1544q-61 0 -108.5 46.5t-47.5 109.5t47.5 109t108.5 46q62 0 109 -45.5t47 -109.5t-47 -110t-109 -46zM70 1544q-61 0 -108.5 46.5t-47.5 109.5t47.5 109t108.5 46q62 0 108.5 -45.5t46.5 -109.5t-46.5 -110t-108.5 -46zM152 0v1393h286v-1393h-286z" />
    <glyph glyph-name="Eth" unicode="&#xd0;" horiz-adv-x="1402" 
d="M145 0v487h-120v248h120v658h428q212 0 379 -87.5t261 -247t94 -362.5t-93.5 -362t-260.5 -246.5t-380 -87.5h-428zM432 252h127q224 0 337.5 120.5t113.5 323.5q0 204 -113.5 324.5t-337.5 120.5h-127v-406h309v-248h-309v-235z" />
    <glyph glyph-name="Ntilde" unicode="&#xd1;" horiz-adv-x="1435" 
d="M553 1532l-186 18q7 140 69.5 213.5t157.5 73.5q61 0 129 -41q13 -8 30.5 -20t26 -17t20 -9.5t21.5 -4.5q51 0 60 92l186 -18q-7 -140 -69 -213.5t-158 -73.5q-61 0 -129 41q-13 8 -30.5 20t-26 17t-20 9.5t-22.5 4.5q-50 0 -59 -92zM1262 -12l-703 659q-31 29 -72.5 77
t-67.5 81l-26 33q21 -154 21 -254v-584h-269v1405h29l703 -660q30 -28 71 -75.5t66 -81.5l26 -33q-18 158 -18 254v584h268v-1405h-28z" />
    <glyph glyph-name="Ograve" unicode="&#xd2;" horiz-adv-x="1638" 
d="M713 1532l-213 385h315l107 -385h-209zM819 -18q-149 0 -282 54t-229.5 148t-153 227t-56.5 285t56.5 285.5t153 227t230 148t281.5 54.5t281.5 -54.5t230 -148t153 -227t56.5 -285.5t-56.5 -285t-153 -227t-229.5 -148t-282 -54zM819 238q188 0 307 130.5t119 327.5
t-119 328t-307 131t-307 -131t-119 -328t119 -327.5t307 -130.5z" />
    <glyph glyph-name="Oacute" unicode="&#xd3;" horiz-adv-x="1638" 
d="M717 1532l106 385h316l-213 -385h-209zM819 -18q-149 0 -282 54t-229.5 148t-153 227t-56.5 285t56.5 285.5t153 227t230 148t281.5 54.5t281.5 -54.5t230 -148t153 -227t56.5 -285.5t-56.5 -285t-153 -227t-229.5 -148t-282 -54zM819 238q188 0 307 130.5t119 327.5
t-119 328t-307 131t-307 -131t-119 -328t119 -327.5t307 -130.5z" />
    <glyph glyph-name="Ocircumflex" unicode="&#xd4;" horiz-adv-x="1638" 
d="M481 1532l326 442h22l326 -442h-221l-115 133l-117 -133h-221zM819 -18q-149 0 -282 54t-229.5 148t-153 227t-56.5 285t56.5 285.5t153 227t230 148t281.5 54.5t281.5 -54.5t230 -148t153 -227t56.5 -285.5t-56.5 -285t-153 -227t-229.5 -148t-282 -54zM819 238
q188 0 307 130.5t119 327.5t-119 328t-307 131t-307 -131t-119 -328t119 -327.5t307 -130.5z" />
    <glyph glyph-name="Otilde" unicode="&#xd5;" horiz-adv-x="1638" 
d="M655 1532l-186 18q7 140 69.5 213.5t157.5 73.5q61 0 129 -41q12 -7 30.5 -19.5t26.5 -17.5t20 -9.5t22 -4.5q27 0 40.5 22.5t18.5 69.5l186 -18q-7 -140 -69 -213.5t-158 -73.5q-61 0 -129 41q-13 8 -30 19.5t-25.5 17t-20 10t-22.5 4.5q-51 0 -60 -92zM819 -18
q-149 0 -282 54t-229.5 148t-153 227t-56.5 285t56.5 285.5t153 227t230 148t281.5 54.5t281.5 -54.5t230 -148t153 -227t56.5 -285.5t-56.5 -285t-153 -227t-229.5 -148t-282 -54zM819 238q188 0 307 130.5t119 327.5t-119 328t-307 131t-307 -131t-119 -328t119 -327.5
t307 -130.5z" />
    <glyph glyph-name="Odieresis" unicode="&#xd6;" horiz-adv-x="1638" 
d="M1042 1544q-61 0 -108 46t-47 110q0 63 47 109t108 46q62 0 109 -45.5t47 -109.5t-47 -110t-109 -46zM596 1544q-61 0 -108.5 46.5t-47.5 109.5t47.5 109t108.5 46q62 0 109 -45.5t47 -109.5t-47 -110t-109 -46zM819 -18q-149 0 -282 54t-229.5 148t-153 227t-56.5 285
t56.5 285.5t153 227t230 148t281.5 54.5t281.5 -54.5t230 -148t153 -227t56.5 -285.5t-56.5 -285t-153 -227t-229.5 -148t-282 -54zM819 238q188 0 307 130.5t119 327.5t-119 328t-307 131t-307 -131t-119 -328t119 -327.5t307 -130.5z" />
    <glyph glyph-name="multiply" unicode="&#xd7;" 
d="M512 377l-215 -215l-168 168l215 215l-215 215l168 168l215 -215l215 215l168 -168l-215 -215l215 -215l-168 -168z" />
    <glyph glyph-name="Oslash" unicode="&#xd8;" horiz-adv-x="1638" 
d="M233 -20l-159 157l151 144q-127 186 -127 415q0 152 56.5 285.5t153 227t230 148t281.5 54.5q248 0 438 -141l148 141l160 -158l-152 -143q127 -183 127 -414q0 -152 -56.5 -285t-153 -227t-229.5 -148t-282 -54q-245 0 -436 139zM434 481l629 602q-104 74 -244 74
q-188 0 -308 -132t-120 -329q0 -122 43 -215zM819 236q188 0 308 131.5t120 328.5q0 120 -41 213l-631 -602q103 -71 244 -71z" />
    <glyph glyph-name="Ugrave" unicode="&#xd9;" horiz-adv-x="1404" 
d="M596 1532l-213 385h315l107 -385h-209zM705 -18q-122 0 -224.5 32.5t-179 96t-119.5 164t-43 229.5v889h287v-873q0 -150 67 -215t212 -65q143 0 208.5 65t65.5 215v873h287v-889q0 -171 -75 -290.5t-199.5 -175.5t-286.5 -56z" />
    <glyph glyph-name="Uacute" unicode="&#xda;" horiz-adv-x="1404" 
d="M600 1532l107 385h315l-213 -385h-209zM705 -18q-122 0 -224.5 32.5t-179 96t-119.5 164t-43 229.5v889h287v-873q0 -150 67 -215t212 -65q143 0 208.5 65t65.5 215v873h287v-889q0 -171 -75 -290.5t-199.5 -175.5t-286.5 -56z" />
    <glyph glyph-name="Ucircumflex" unicode="&#xdb;" horiz-adv-x="1404" 
d="M365 1532l325 442h23l325 -442h-221l-115 133l-116 -133h-221zM705 -18q-122 0 -224.5 32.5t-179 96t-119.5 164t-43 229.5v889h287v-873q0 -150 67 -215t212 -65q143 0 208.5 65t65.5 215v873h287v-889q0 -171 -75 -290.5t-199.5 -175.5t-286.5 -56z" />
    <glyph glyph-name="Udieresis" unicode="&#xdc;" horiz-adv-x="1404" 
d="M926 1544q-61 0 -108.5 46.5t-47.5 109.5t47.5 109t108.5 46q62 0 108.5 -45.5t46.5 -109.5t-46.5 -110t-108.5 -46zM479 1544q-61 0 -108 46t-47 110q0 63 47 109t108 46q62 0 109 -45.5t47 -109.5t-47 -110t-109 -46zM705 -18q-122 0 -224.5 32.5t-179 96t-119.5 164
t-43 229.5v889h287v-873q0 -150 67 -215t212 -65q143 0 208.5 65t65.5 215v873h287v-889q0 -171 -75 -290.5t-199.5 -175.5t-286.5 -56z" />
    <glyph glyph-name="Yacute" unicode="&#xdd;" horiz-adv-x="1396" 
d="M600 1532l107 385h315l-213 -385h-209zM571 0v442l-528 951h317l246 -449q24 -44 52 -110t44 -110l17 -44q55 164 108 264l236 449h293l-496 -930v-463h-289z" />
    <glyph glyph-name="Thorn" unicode="&#xde;" horiz-adv-x="1230" 
d="M145 0v1393h287v-150h98q292 0 457.5 -143t165.5 -395t-166 -394.5t-457 -142.5h-98v-168h-287zM432 420h90q173 0 254.5 70.5t81.5 214.5q0 145 -82.5 215.5t-253.5 70.5h-90v-571z" />
    <glyph glyph-name="germandbls" unicode="&#xdf;" horiz-adv-x="1880" 
d="M1411 -18q-157 0 -273 67.5t-171 179.5l217 127q80 -139 223 -139q58 0 94.5 21t36.5 57q0 37 -30.5 60t-114.5 57l-45 18q-147 60 -221 137.5t-74 210.5q0 139 97 224t253 85q120 0 202 -41.5t146 -142.5l-211 -121q-27 42 -57 59t-72 17t-67 -20.5t-25 -55.5
q0 -21 7 -36t26 -28t33 -20t45 -20l45 -19q67 -27 112 -49t92 -54t74 -67t44.5 -84t17.5 -108q0 -149 -107 -232t-297 -83zM471 -18q-157 0 -273 67.5t-171 179.5l217 127q80 -139 223 -139q58 0 94.5 21t36.5 57q0 37 -30.5 60t-114.5 57l-45 18q-147 60 -221 137.5
t-74 210.5q0 139 97 224t253 85q120 0 202 -41.5t146 -142.5l-211 -121q-27 42 -57 59t-72 17t-67 -20.5t-25 -55.5q0 -21 7 -36t25.5 -28t32.5 -20t45 -20l46 -19q67 -27 112 -49t91.5 -54t73.5 -67t44.5 -84t17.5 -108q0 -149 -107 -232t-296 -83z" />
    <glyph glyph-name="agrave" unicode="&#xe0;" horiz-adv-x="1105" 
d="M446 1200l-213 385h316l106 -385h-209zM39 0l502 1081h22l504 -1081h-289l-37 86h-395l-37 -86h-270zM422 274h250l-45 107q-21 49 -41 105.5t-30 87.5l-9 32q-29 -114 -78 -225z" />
    <glyph glyph-name="aacute" unicode="&#xe1;" horiz-adv-x="1105" 
d="M451 1200l106 385h315l-213 -385h-208zM39 0l502 1081h22l504 -1081h-289l-37 86h-395l-37 -86h-270zM422 274h250l-45 107q-21 49 -41 105.5t-30 87.5l-9 32q-29 -114 -78 -225z" />
    <glyph glyph-name="acircumflex" unicode="&#xe2;" horiz-adv-x="1105" 
d="M211 1200l326 442h22l326 -442h-221l-115 133l-117 -133h-221zM39 0l502 1081h22l504 -1081h-289l-37 86h-395l-37 -86h-270zM422 274h250l-45 107q-21 49 -41 105.5t-30 87.5l-9 32q-29 -114 -78 -225z" />
    <glyph glyph-name="atilde" unicode="&#xe3;" horiz-adv-x="1105" 
d="M375 1200l-187 19q7 139 70 212.5t158 73.5q61 0 129 -41q13 -8 30.5 -20t26 -17t20 -9.5t21.5 -4.5q27 0 40.5 22.5t18.5 69.5l187 -18q-7 -140 -69 -213.5t-158 -73.5q-62 0 -130 41q-13 8 -30 19.5t-25.5 17t-20 10t-22.5 4.5q-50 0 -59 -92zM39 0l502 1081h22
l504 -1081h-289l-37 86h-395l-37 -86h-270zM422 274h250l-45 107q-21 49 -41 105.5t-30 87.5l-9 32q-29 -114 -78 -225z" />
    <glyph glyph-name="adieresis" unicode="&#xe4;" horiz-adv-x="1105" 
d="M774 1212q-61 0 -108.5 46.5t-47.5 109.5t47.5 109.5t108.5 46.5q62 0 109 -46t47 -110t-47 -110t-109 -46zM328 1212q-61 0 -108.5 46.5t-47.5 109.5t47.5 109.5t108.5 46.5q62 0 108.5 -46t46.5 -110t-46.5 -110t-108.5 -46zM39 0l502 1081h22l504 -1081h-289l-37 86
h-395l-37 -86h-270zM422 274h250l-45 107q-21 49 -41 105.5t-30 87.5l-9 32q-29 -114 -78 -225z" />
    <glyph glyph-name="aring" unicode="&#xe5;" horiz-adv-x="1105" 
d="M549 1147q-111 0 -187.5 72t-76.5 172q0 101 76 172t188 71t188 -71t76 -172q0 -100 -76.5 -172t-187.5 -72zM39 0l502 1081h22l504 -1081h-289l-37 86h-395l-37 -86h-270zM549 1298q38 0 63 25t25 68t-25 67.5t-63 24.5t-63 -24.5t-25 -67.5t25 -68t63 -25zM422 274h250
l-45 107q-21 49 -41 105.5t-30 87.5l-9 32q-29 -114 -78 -225z" />
    <glyph glyph-name="ae" unicode="&#xe6;" horiz-adv-x="1636" 
d="M29 0l766 1069h733v-240h-481v-231h401v-227h-401v-131h501v-240h-780v104h-371l-73 -104h-295zM545 313h223v185q0 36 4.5 85.5t9.5 80.5l4 32q-47 -110 -94 -176z" />
    <glyph glyph-name="ccedilla" unicode="&#xe7;" horiz-adv-x="1204" 
d="M530 -8q-204 36 -323 185.5t-119 357.5q0 157 69.5 283t196.5 197.5t289 71.5q308 0 457 -233l-221 -147q-83 135 -236 135q-124 0 -197 -85.5t-73 -221.5q0 -135 74 -221.5t202 -86.5q184 0 258 152l226 -129q-60 -121 -178.5 -192.5t-282.5 -75.5v-62
q77 -15 129.5 -69.5t52.5 -143.5q0 -88 -66.5 -143.5t-154.5 -55.5q-170 0 -242 123l131 80q29 -57 88 -57q31 0 52.5 18t21.5 52t-23 51.5t-61 17.5h-70v199z" />
    <glyph glyph-name="egrave" unicode="&#xe8;" horiz-adv-x="983" 
d="M403 1200l-213 385h316l106 -385h-209zM115 0v1069h759v-240h-481v-231h402v-227h-402v-131h502v-240h-780z" />
    <glyph glyph-name="eacute" unicode="&#xe9;" horiz-adv-x="983" 
d="M397 1200l107 385h315l-213 -385h-209zM115 0v1069h759v-240h-481v-231h402v-227h-402v-131h502v-240h-780z" />
    <glyph glyph-name="ecircumflex" unicode="&#xea;" horiz-adv-x="983" 
d="M158 1200l325 442h23l325 -442h-221l-114 133l-117 -133h-221zM115 0v1069h759v-240h-481v-231h402v-227h-402v-131h502v-240h-780z" />
    <glyph glyph-name="edieresis" unicode="&#xeb;" horiz-adv-x="983" 
d="M723 1212q-61 0 -108.5 46.5t-47.5 109.5t47.5 109.5t108.5 46.5q62 0 109 -46t47 -110t-47 -110t-109 -46zM276 1212q-61 0 -108 46t-47 110t47 110t108 46q62 0 109 -46t47 -110t-47 -110t-109 -46zM115 0v1069h759v-240h-481v-231h402v-227h-402v-131h502v-240h-780z
" />
    <glyph glyph-name="igrave" unicode="&#xec;" horiz-adv-x="516" 
d="M158 1200l-213 385h315l107 -385h-209zM119 0v1069h278v-1069h-278z" />
    <glyph glyph-name="iacute" unicode="&#xed;" horiz-adv-x="516" 
d="M145 1200l107 385h315l-213 -385h-209zM119 0v1069h278v-1069h-278z" />
    <glyph glyph-name="icircumflex" unicode="&#xee;" horiz-adv-x="516" 
d="M-82 1200l326 442h22l326 -442h-221l-115 133l-117 -133h-221zM119 0v1069h278v-1069h-278z" />
    <glyph glyph-name="idieresis" unicode="&#xef;" horiz-adv-x="516" 
d="M479 1212q-61 0 -108 46t-47 110t47 110t108 46q62 0 109 -46t47 -110t-47 -110t-109 -46zM33 1212q-61 0 -108.5 46.5t-47.5 109.5t47.5 109.5t108.5 46.5q62 0 108.5 -46t46.5 -110t-46.5 -110t-108.5 -46zM119 0v1069h278v-1069h-278z" />
    <glyph glyph-name="eth" unicode="&#xf0;" horiz-adv-x="1144" 
d="M115 0v375h-78v231h78v463h385q158 0 284 -64t199.5 -186.5t73.5 -283.5q0 -160 -73 -282.5t-199.5 -187.5t-284.5 -65h-385zM393 242h92q145 0 216 77t71 216q0 138 -71 215t-216 77h-92v-221h211v-231h-211v-133z" />
    <glyph glyph-name="ntilde" unicode="&#xf1;" horiz-adv-x="1138" 
d="M399 1200l-186 19q7 140 69.5 213t157.5 73q61 0 129 -41q12 -7 30.5 -19.5t26.5 -17.5t20 -9.5t22 -4.5q27 0 40.5 22.5t18.5 69.5l186 -18q-7 -140 -69 -213.5t-158 -73.5q-61 0 -129 41q-13 8 -30 19.5t-25.5 17t-20 10t-22.5 4.5q-51 0 -60 -92zM1001 -16l-497 430
q-36 31 -74.5 71t-59.5 64l-20 24q21 -137 21 -225v-348h-256v1083h22l494 -426q38 -34 76.5 -74t57.5 -63l19 -24q-16 139 -16 227v346h256v-1085h-23z" />
    <glyph glyph-name="ograve" unicode="&#xf2;" horiz-adv-x="1327" 
d="M557 1200l-213 385h315l107 -385h-209zM664 -18q-156 0 -287.5 70t-210 197.5t-78.5 285.5q0 120 46 224t124.5 175.5t183.5 112t222 40.5q156 0 287 -68.5t209.5 -196t78.5 -287.5q0 -158 -78.5 -285.5t-209.5 -197.5t-287 -70zM664 227q129 0 209.5 85t80.5 223
q0 135 -80.5 221t-209.5 86t-210 -86t-81 -221q0 -138 81 -223t210 -85z" />
    <glyph glyph-name="oacute" unicode="&#xf3;" horiz-adv-x="1327" 
d="M561 1200l107 385h315l-213 -385h-209zM664 -18q-156 0 -287.5 70t-210 197.5t-78.5 285.5q0 120 46 224t124.5 175.5t183.5 112t222 40.5q156 0 287 -68.5t209.5 -196t78.5 -287.5q0 -158 -78.5 -285.5t-209.5 -197.5t-287 -70zM664 227q129 0 209.5 85t80.5 223
q0 135 -80.5 221t-209.5 86t-210 -86t-81 -221q0 -138 81 -223t210 -85z" />
    <glyph glyph-name="ocircumflex" unicode="&#xf4;" horiz-adv-x="1327" 
d="M326 1200l325 442h23l325 -442h-221l-114 133l-117 -133h-221zM664 -18q-156 0 -287.5 70t-210 197.5t-78.5 285.5q0 120 46 224t124.5 175.5t183.5 112t222 40.5q156 0 287 -68.5t209.5 -196t78.5 -287.5q0 -158 -78.5 -285.5t-209.5 -197.5t-287 -70zM664 227
q129 0 209.5 85t80.5 223q0 135 -80.5 221t-209.5 86t-210 -86t-81 -221q0 -138 81 -223t210 -85z" />
    <glyph glyph-name="otilde" unicode="&#xf5;" horiz-adv-x="1327" 
d="M500 1200l-187 19q7 139 70 212.5t158 73.5q61 0 129 -41q13 -8 30.5 -20t26 -17t20 -9.5t21.5 -4.5q27 0 40.5 22.5t18.5 69.5l187 -18q-7 -140 -69.5 -213.5t-158.5 -73.5q-61 0 -129 41q-13 8 -30 19.5t-25.5 17t-20 10t-22.5 4.5q-50 0 -59 -92zM664 -18
q-156 0 -287.5 70t-210 197.5t-78.5 285.5q0 120 46 224t124.5 175.5t183.5 112t222 40.5q156 0 287 -68.5t209.5 -196t78.5 -287.5q0 -158 -78.5 -285.5t-209.5 -197.5t-287 -70zM664 227q129 0 209.5 85t80.5 223q0 135 -80.5 221t-209.5 86t-210 -86t-81 -221
q0 -138 81 -223t210 -85z" />
    <glyph glyph-name="odieresis" unicode="&#xf6;" horiz-adv-x="1327" 
d="M887 1212q-61 0 -108.5 46.5t-47.5 109.5t47.5 109.5t108.5 46.5q62 0 108.5 -46t46.5 -110t-46.5 -110t-108.5 -46zM440 1212q-61 0 -108 46t-47 110t47 110t108 46q62 0 109 -46t47 -110t-47 -110t-109 -46zM664 -18q-156 0 -287.5 70t-210 197.5t-78.5 285.5
q0 120 46 224t124.5 175.5t183.5 112t222 40.5q156 0 287 -68.5t209.5 -196t78.5 -287.5q0 -158 -78.5 -285.5t-209.5 -197.5t-287 -70zM664 227q129 0 209.5 85t80.5 223q0 135 -80.5 221t-209.5 86t-210 -86t-81 -221q0 -138 81 -223t210 -85z" />
    <glyph glyph-name="divide" unicode="&#xf7;" 
d="M512 737q-69 0 -117.5 47.5t-48.5 118.5t48.5 117.5t117.5 46.5q67 0 115.5 -46.5t48.5 -117.5t-48.5 -118.5t-115.5 -47.5zM129 424v242h764v-242h-764zM512 23q-69 0 -117.5 47t-48.5 118t48.5 117.5t117.5 46.5q67 0 115.5 -46.5t48.5 -117.5t-48.5 -118t-115.5 -47z
" />
    <glyph glyph-name="oslash" unicode="&#xf8;" horiz-adv-x="1327" 
d="M1143 850q96 -140 96 -315q0 -158 -78.5 -285.5t-209.5 -197.5t-287 -70q-197 0 -347 106l-118 -108l-127 133l114 106q-98 138 -98 316q0 120 46 224t124.5 175.5t183.5 112t222 40.5q198 0 348 -106l116 106l127 -133zM387 403l436 404q-67 43 -159 43
q-133 0 -216 -87.5t-83 -227.5q0 -71 22 -132zM940 664l-436 -404q68 -41 160 -41q134 0 216.5 87t82.5 229q0 65 -23 129z" />
    <glyph glyph-name="ugrave" unicode="&#xf9;" horiz-adv-x="1138" 
d="M469 1200l-213 385h315l107 -385h-209zM571 -18q-211 0 -336.5 114t-125.5 326v647h278v-643q0 -197 182 -197q93 0 138 48.5t45 148.5v643h278v-647q0 -211 -126.5 -325.5t-332.5 -114.5z" />
    <glyph glyph-name="uacute" unicode="&#xfa;" horiz-adv-x="1138" 
d="M477 1200l107 385h315l-213 -385h-209zM571 -18q-211 0 -336.5 114t-125.5 326v647h278v-643q0 -197 182 -197q93 0 138 48.5t45 148.5v643h278v-647q0 -211 -126.5 -325.5t-332.5 -114.5z" />
    <glyph glyph-name="ucircumflex" unicode="&#xfb;" horiz-adv-x="1138" 
d="M231 1200l326 442h23l325 -442h-221l-115 133l-116 -133h-222zM571 -18q-211 0 -336.5 114t-125.5 326v647h278v-643q0 -197 182 -197q93 0 138 48.5t45 148.5v643h278v-647q0 -211 -126.5 -325.5t-332.5 -114.5z" />
    <glyph glyph-name="udieresis" unicode="&#xfc;" horiz-adv-x="1138" 
d="M793 1212q-61 0 -108.5 46.5t-47.5 109.5t47.5 109.5t108.5 46.5q62 0 108.5 -46t46.5 -110t-46.5 -110t-108.5 -46zM346 1212q-61 0 -108.5 46.5t-47.5 109.5t47.5 109.5t108.5 46.5q62 0 109 -46t47 -110t-47 -110t-109 -46zM571 -18q-211 0 -336.5 114t-125.5 326v647
h278v-643q0 -197 182 -197q93 0 138 48.5t45 148.5v643h278v-647q0 -211 -126.5 -325.5t-332.5 -114.5z" />
    <glyph glyph-name="yacute" unicode="&#xfd;" horiz-adv-x="1120" 
d="M487 1200l107 385h315l-213 -385h-209zM428 0v350l-397 719h317l129 -246q25 -48 49.5 -115t36.5 -110l12 -43q44 164 97 268l123 246h295l-383 -715v-354h-279z" />
    <glyph glyph-name="thorn" unicode="&#xfe;" horiz-adv-x="1034" 
d="M115 0v1069h278v-108h72q230 0 364 -109.5t134 -310.5q0 -199 -134 -308.5t-364 -109.5h-72v-123h-278zM393 362h66q111 0 164 42t53 137q0 94 -54.5 136t-162.5 42h-66v-357z" />
    <glyph glyph-name="ydieresis" unicode="&#xff;" horiz-adv-x="1120" 
d="M793 1212q-61 0 -108.5 46.5t-47.5 109.5t47.5 109.5t108.5 46.5q62 0 108.5 -46t46.5 -110t-46.5 -110t-108.5 -46zM346 1212q-61 0 -108.5 46.5t-47.5 109.5t47.5 109.5t108.5 46.5q62 0 109 -46t47 -110t-47 -110t-109 -46zM428 0v350l-397 719h317l129 -246
q25 -48 49.5 -115t36.5 -110l12 -43q44 164 97 268l123 246h295l-383 -715v-354h-279z" />
    <glyph glyph-name="dotlessi" unicode="&#x131;" horiz-adv-x="516" 
d="M119 0v1069h278v-1069h-278z" />
    <glyph glyph-name="Lslash" unicode="&#x141;" horiz-adv-x="1169" 
d="M166 0v362l-152 -51v250l152 51v781h287v-680l368 127v-250l-368 -127v-211h630v-252h-917z" />
    <glyph glyph-name="lslash" unicode="&#x142;" horiz-adv-x="972" 
d="M414 377v-135h471v-242h-750v258l-115 -49v231l115 49v580h279v-461l262 113v-232z" />
    <glyph glyph-name="OE" unicode="&#x152;" horiz-adv-x="2041" 
d="M829 0q-212 0 -379 87.5t-260.5 246.5t-93.5 362t93 362t260 247t380 88h1063v-252h-635v-443h560v-245h-560v-201h664v-252h-1092zM844 252h127v889h-127q-224 0 -337.5 -120.5t-113.5 -324.5q0 -203 113.5 -323.5t337.5 -120.5z" />
    <glyph glyph-name="oe" unicode="&#x153;" horiz-adv-x="1619" 
d="M645 0q-158 0 -284 64t-199.5 187t-73.5 284q0 120 42.5 220.5t117 169t177 106.5t220.5 38h866v-240h-481v-231h402v-227h-402v-131h502v-240h-887zM659 242h93v585h-93q-145 0 -215.5 -76.5t-70.5 -215.5q0 -138 70.5 -215.5t215.5 -77.5z" />
    <glyph glyph-name="Scaron" unicode="&#x160;" horiz-adv-x="1099" 
d="M512 1493l-326 442h222l114 -133l117 133h221l-325 -442h-23zM547 -18q-190 0 -322.5 79.5t-199.5 212.5l233 136q51 -83 117.5 -128.5t165.5 -45.5q88 0 141 39.5t53 101.5q0 24 -5.5 43.5t-20.5 37t-28.5 29.5t-42.5 27.5t-50 25t-62 27.5l-71 31q-83 35 -142 72.5
t-107 88.5t-71.5 118.5t-23.5 152.5q0 164 115 271.5t304 107.5q140 0 239.5 -54t168.5 -175l-223 -144q-37 66 -80 94.5t-105 28.5t-99.5 -35t-37.5 -88q0 -61 38.5 -96t137.5 -78l72 -31q98 -42 163.5 -81.5t117.5 -92t76 -120.5t24 -156q0 -188 -132.5 -293.5
t-342.5 -105.5z" />
    <glyph glyph-name="scaron" unicode="&#x161;" horiz-adv-x="940" 
d="M428 1161l-326 443h222l114 -134l117 134h221l-325 -443h-23zM471 -18q-157 0 -273 67.5t-171 179.5l217 127q80 -139 223 -139q58 0 94.5 21t36.5 57q0 37 -30.5 60t-114.5 57l-45 18q-147 60 -221 137.5t-74 210.5q0 139 97 224t253 85q120 0 202 -41.5t146 -142.5
l-211 -121q-27 42 -57 59t-72 17t-67 -20.5t-25 -55.5q0 -21 7 -36t25.5 -28t32.5 -20t45 -20l46 -19q67 -27 112 -49t91.5 -54t73.5 -67t44.5 -84t17.5 -108q0 -149 -107 -232t-296 -83z" />
    <glyph glyph-name="Ydieresis" unicode="&#x178;" horiz-adv-x="1396" 
d="M922 1544q-61 0 -108.5 46.5t-47.5 109.5t47.5 109t108.5 46q62 0 108.5 -45.5t46.5 -109.5t-46.5 -110t-108.5 -46zM475 1544q-61 0 -108.5 46.5t-47.5 109.5t47.5 109t108.5 46q62 0 109 -45.5t47 -109.5t-47 -110t-109 -46zM571 0v442l-528 951h317l246 -449
q24 -44 52 -110t44 -110l17 -44q55 164 108 264l236 449h293l-496 -930v-463h-289z" />
    <glyph glyph-name="Zcaron" unicode="&#x17d;" horiz-adv-x="1243" 
d="M629 1493l-326 442h221l115 -133l117 133h221l-326 -442h-22zM55 0v25l639 1116h-526v252h969v-25l-637 -1116h602v-252h-1047z" />
    <glyph glyph-name="zcaron" unicode="&#x17e;" horiz-adv-x="1015" 
d="M524 1161l-325 443h221l115 -134l116 134h221l-325 -443h-23zM66 0v23l456 806h-377v240h801v-22l-457 -807h424v-240h-847z" />
    <glyph glyph-name="florin" unicode="&#x192;" 
d="M281 381h-158v211h180l16 133q20 177 113.5 269.5t247.5 92.5q211 0 311 -165l-184 -142q-43 74 -113 74q-91 0 -104 -123l-17 -139h236v-211h-260l-64 -574h-270z" />
    <glyph glyph-name="circumflex" unicode="&#x2c6;" 
d="M174 1024l326 442h22l326 -442h-221l-115 133l-117 -133h-221z" />
    <glyph glyph-name="caron" unicode="&#x2c7;" 
d="M502 985l-326 442h221l115 -133l117 133h221l-326 -442h-22z" />
    <glyph glyph-name="breve" unicode="&#x2d8;" 
d="M512 1024q-144 0 -232 80t-100 207l211 30q17 -116 121 -116t121 116l211 -30q-12 -127 -100 -207t-232 -80z" />
    <glyph glyph-name="dotaccent" unicode="&#x2d9;" 
d="M512 1036q-61 0 -108.5 46.5t-47.5 109.5t47.5 109.5t108.5 46.5q62 0 109 -46t47 -110t-47 -110t-109 -46z" />
    <glyph glyph-name="ring" unicode="&#x2da;" 
d="M512 971q-111 0 -187.5 72t-76.5 171q0 101 76.5 172.5t187.5 71.5t187.5 -71.5t76.5 -172.5q0 -99 -76.5 -171t-187.5 -72zM512 1122q38 0 63 24.5t25 67.5t-25 68t-63 25t-63 -25t-25 -68t25 -67.5t63 -24.5z" />
    <glyph glyph-name="ogonek" unicode="&#x2db;" 
d="M498 -492q-93 0 -156 54t-63 153q0 91 81 193l72 92h162l-84 -141q-33 -56 -43 -81.5t-10 -58.5q0 -28 15.5 -43.5t41.5 -15.5q51 0 84 53l135 -78q-37 -64 -91.5 -95.5t-143.5 -31.5z" />
    <glyph glyph-name="tilde" unicode="&#x2dc;" 
d="M348 1024l-186 18q7 140 69.5 213.5t157.5 73.5q61 0 129 -41q13 -8 30.5 -20t26 -17t20 -9.5t21.5 -4.5q51 0 60 92l186 -18q-7 -140 -69 -213.5t-158 -73.5q-61 0 -129 41q-13 8 -30 19.5t-25.5 17t-20 10t-22.5 4.5q-51 0 -60 -92z" />
    <glyph glyph-name="hungarumlaut" unicode="&#x2dd;" 
d="M598 1024l104 385h287l-182 -385h-209zM219 1024l105 385h286l-182 -385h-209z" />
    <glyph glyph-name="Delta" unicode="&#x394;" horiz-adv-x="497" 
d="M256 354q-72 0 -123 49.5t-51 124.5q0 74 51 123t123 49q70 0 121 -49t51 -123q0 -75 -50.5 -124.5t-121.5 -49.5z" />
    <glyph glyph-name="Delta" unicode="&#x2206;" horiz-adv-x="497" 
d="M256 354q-72 0 -123 49.5t-51 124.5q0 74 51 123t123 49q70 0 121 -49t51 -123q0 -75 -50.5 -124.5t-121.5 -49.5z" />
    <glyph glyph-name="Omega" unicode="&#x3a9;" horiz-adv-x="497" 
d="M256 354q-72 0 -123 49.5t-51 124.5q0 74 51 123t123 49q70 0 121 -49t51 -123q0 -75 -50.5 -124.5t-121.5 -49.5z" />
    <glyph glyph-name="Omega" unicode="&#x2126;" horiz-adv-x="497" 
d="M256 354q-72 0 -123 49.5t-51 124.5q0 74 51 123t123 49q70 0 121 -49t51 -123q0 -75 -50.5 -124.5t-121.5 -49.5z" />
    <glyph glyph-name="pi" unicode="&#x3c0;" horiz-adv-x="497" 
d="M256 354q-72 0 -123 49.5t-51 124.5q0 74 51 123t123 49q70 0 121 -49t51 -123q0 -75 -50.5 -124.5t-121.5 -49.5z" />
    <glyph glyph-name="endash" unicode="&#x2013;" horiz-adv-x="831" 
d="M61 342v246h709v-246h-709z" />
    <glyph glyph-name="emdash" unicode="&#x2014;" horiz-adv-x="1345" 
d="M61 342v246h1223v-246h-1223z" />
    <glyph glyph-name="quoteleft" unicode="&#x2018;" horiz-adv-x="495" 
d="M250 846q-68 0 -118 47t-50 115q0 44 15 83.5t46 92.5l123 209h133l-77 -234q39 -18 65.5 -58t26.5 -91q0 -69 -49 -116.5t-115 -47.5z" />
    <glyph glyph-name="quoteright" unicode="&#x2019;" horiz-adv-x="495" 
d="M96 860l78 234q-39 18 -65.5 58t-26.5 91q0 69 49 116.5t115 47.5q68 0 118 -47t50 -115q0 -44 -15 -83t-47 -93l-123 -209h-133z" />
    <glyph glyph-name="quotesinglbase" unicode="&#x201a;" horiz-adv-x="495" 
d="M96 -209l78 234q-39 18 -65.5 58t-26.5 91q0 69 49 116.5t115 47.5q68 0 118 -47t50 -115q0 -44 -15 -83t-47 -93l-123 -209h-133z" />
    <glyph glyph-name="quotedblleft" unicode="&#x201c;" horiz-adv-x="940" 
d="M694 846q-68 0 -118 47t-50 115q0 44 15 83t47 93l123 209h133l-78 -234q39 -18 65.5 -58t26.5 -91q0 -69 -49 -116.5t-115 -47.5zM250 846q-68 0 -118 47t-50 115q0 44 15 83.5t46 92.5l123 209h133l-77 -234q39 -18 65.5 -58t26.5 -91q0 -69 -49 -116.5t-115 -47.5z
" />
    <glyph glyph-name="quotedblright" unicode="&#x201d;" horiz-adv-x="940" 
d="M541 860l77 234q-39 18 -65.5 58t-26.5 91q0 69 49 116.5t115 47.5q68 0 118 -47t50 -115q0 -44 -15 -83.5t-46 -92.5l-123 -209h-133zM96 860l78 234q-39 18 -65.5 58t-26.5 91q0 69 49 116.5t115 47.5q68 0 118 -47t50 -115q0 -44 -15 -83t-47 -93l-123 -209h-133z" />
    <glyph glyph-name="quotedblbase" unicode="&#x201e;" horiz-adv-x="940" 
d="M541 -209l77 234q-39 18 -65.5 58t-26.5 91q0 69 49 116.5t115 47.5q68 0 118 -47t50 -115q0 -44 -15 -83.5t-46 -92.5l-123 -209h-133zM96 -209l78 234q-39 18 -65.5 58t-26.5 91q0 69 49 116.5t115 47.5q68 0 118 -47t50 -115q0 -44 -15 -83t-47 -93l-123 -209h-133z
" />
    <glyph glyph-name="dagger" unicode="&#x2020;" horiz-adv-x="741" 
d="M246 494v473h-183v227h183v199h250v-199h182v-227h-182v-473h-250z" />
    <glyph glyph-name="daggerdbl" unicode="&#x2021;" horiz-adv-x="741" 
d="M246 494v198h-183v203h183v96h-183v203h183v199h250v-199h182v-203h-182v-96h182v-203h-182v-198h-250z" />
    <glyph glyph-name="bullet" unicode="&#x2022;" horiz-adv-x="567" 
d="M283 348q-89 0 -154.5 64.5t-65.5 156.5q0 94 65.5 158t154.5 64t155 -64t66 -158q0 -92 -66 -156.5t-155 -64.5z" />
    <glyph glyph-name="ellipsis" unicode="&#x2026;" horiz-adv-x="1513" 
d="M1260 -12q-72 0 -123.5 49.5t-51.5 124.5q0 74 51.5 123t123.5 49q70 0 121 -49t51 -123q0 -75 -50.5 -124.5t-121.5 -49.5zM758 -12q-72 0 -123 49.5t-51 124.5q0 74 51 123t123 49q70 0 121 -49t51 -123q0 -75 -50.5 -124.5t-121.5 -49.5zM256 -12q-72 0 -123 49.5
t-51 124.5q0 74 51 123t123 49q70 0 121 -49t51 -123q0 -75 -50.5 -124.5t-121.5 -49.5z" />
    <glyph glyph-name="perthousand" unicode="&#x2030;" horiz-adv-x="2252" 
d="M342 444q-128 0 -213.5 91t-85.5 231q0 139 85.5 230t213.5 91q127 0 212 -91t85 -230q0 -140 -85 -231t-212 -91zM315 0l676 1069h273l-676 -1069h-273zM1913 -18q-128 0 -213.5 90.5t-85.5 230.5q0 139 85.5 230.5t213.5 91.5q127 0 212 -91.5t85 -230.5
q0 -140 -85 -230.5t-212 -90.5zM1241 -18q-128 0 -213.5 90.5t-85.5 230.5q0 139 85.5 230.5t213.5 91.5q127 0 212 -91.5t85 -230.5q0 -140 -85 -230.5t-212 -90.5zM342 643q39 0 60.5 32.5t21.5 90.5t-21.5 90.5t-60.5 32.5t-60.5 -32.5t-21.5 -90.5t21.5 -90.5
t60.5 -32.5zM1913 180q39 0 60.5 32.5t21.5 90.5t-21.5 90.5t-60.5 32.5t-60.5 -32.5t-21.5 -90.5t21.5 -90.5t60.5 -32.5zM1241 180q39 0 60.5 32.5t21.5 90.5t-21.5 90.5t-60.5 32.5t-60.5 -32.5t-21.5 -90.5t21.5 -90.5t60.5 -32.5z" />
    <glyph glyph-name="guilsinglleft" unicode="&#x2039;" horiz-adv-x="591" 
d="M260 66l-194 344v16l194 338h266l-200 -346l200 -352h-266z" />
    <glyph glyph-name="guilsinglright" unicode="&#x203a;" horiz-adv-x="591" 
d="M66 66l200 346l-200 352h266l194 -344v-17l-194 -337h-266z" />
    <glyph glyph-name="fraction" unicode="&#x2044;" horiz-adv-x="866" 
d="M-41 0l676 1069h272l-676 -1069h-272z" />
    <glyph glyph-name="fraction" unicode="&#x2215;" horiz-adv-x="866" 
d="M-41 0l676 1069h272l-676 -1069h-272z" />
    <glyph glyph-name="Euro" unicode="&#x20ac;" 
d="M133 565h-92v166v0v0h1v0h1v0h1h1h1h1h1h1h1h1h1h1h1h1h1h1h1h1h1h1h1h1h1h1h1h2h1h1h1h1h2h1h1h1h2h1h1h2h1h1h2h1h2h1h2h1h2h1h2h1h2h1h2h1h2h1h2h2h1h2h2h1h2h2h1h2h2h2h1h2h2h2h1h2h2h2h2h2h2h8q48 165 167.5 260.5t284.5 95.5q131 0 222 -48t155 -142l-190 -145
q-36 54 -77.5 78t-105.5 24q-125 0 -174 -123h238v-166h-266v-28v-43h266v-166h-236q48 -111 176 -111q111 0 183 125l209 -127q-61 -110 -154 -171.5t-240 -61.5q-164 0 -283 93t-169 253h-123v166h92v43v28z" />
    <glyph glyph-name="trademark" unicode="&#x2122;" horiz-adv-x="1456" 
d="M698 774v627h21l301 -301l301 301h20v-627h-184v252l-127 -145h-18l-129 145v-252h-185zM238 774v467h-166v152h520v-152h-166v-467h-188z" />
    <glyph glyph-name="partialdiff" unicode="&#x2202;" horiz-adv-x="497" 
d="M256 354q-72 0 -123 49.5t-51 124.5q0 74 51 123t123 49q70 0 121 -49t51 -123q0 -75 -50.5 -124.5t-121.5 -49.5z" />
    <glyph glyph-name="product" unicode="&#x220f;" horiz-adv-x="497" 
d="M256 354q-72 0 -123 49.5t-51 124.5q0 74 51 123t123 49q70 0 121 -49t51 -123q0 -75 -50.5 -124.5t-121.5 -49.5z" />
    <glyph glyph-name="summation" unicode="&#x2211;" horiz-adv-x="1327" 
d="M813 0q65 -55 131 -55q79 0 139 67l168 -164q-107 -145 -303 -145q-115 0 -211 59t-205 172q-49 52 -88 73.5t-90 21.5q-38 0 -72 -19.5t-48 -35t-37 -44.5l-172 168q19 25 35 42.5t50 41t76 37.5q-98 138 -98 316q0 120 46 224t124.5 175.5t183.5 112t222 40.5
q156 0 287 -68.5t209.5 -196t78.5 -287.5q0 -198 -120 -344t-306 -191zM664 227q129 0 209.5 85t80.5 223q0 135 -80.5 221t-209.5 86t-210 -86t-81 -221q0 -138 81 -223t210 -85z" />
    <glyph glyph-name="minus" unicode="&#x2212;" 
d="M129 424v242h766v-242h-766z" />
    <glyph glyph-name="radical" unicode="&#x221a;" horiz-adv-x="497" 
d="M256 354q-72 0 -123 49.5t-51 124.5q0 74 51 123t123 49q70 0 121 -49t51 -123q0 -75 -50.5 -124.5t-121.5 -49.5z" />
    <glyph glyph-name="integral" unicode="&#x222b;" horiz-adv-x="497" 
d="M256 354q-72 0 -123 49.5t-51 124.5q0 74 51 123t123 49q70 0 121 -49t51 -123q0 -75 -50.5 -124.5t-121.5 -49.5z" />
    <glyph glyph-name="approxequal" unicode="&#x2248;" horiz-adv-x="497" 
d="M256 354q-72 0 -123 49.5t-51 124.5q0 74 51 123t123 49q70 0 121 -49t51 -123q0 -75 -50.5 -124.5t-121.5 -49.5z" />
    <glyph glyph-name="lessequal" unicode="&#x2264;" horiz-adv-x="497" 
d="M256 354q-72 0 -123 49.5t-51 124.5q0 74 51 123t123 49q70 0 121 -49t51 -123q0 -75 -50.5 -124.5t-121.5 -49.5z" />
    <glyph glyph-name="greaterequal" unicode="&#x2265;" horiz-adv-x="497" 
d="M256 354q-72 0 -123 49.5t-51 124.5q0 74 51 123t123 49q70 0 121 -49t51 -123q0 -75 -50.5 -124.5t-121.5 -49.5z" />
    <glyph glyph-name="lozenge" unicode="&#x25ca;" horiz-adv-x="497" 
d="M256 354q-72 0 -123 49.5t-51 124.5q0 74 51 123t123 49q70 0 121 -49t51 -123q0 -75 -50.5 -124.5t-121.5 -49.5z" />
    <glyph glyph-name="plusminus" horiz-adv-x="2818" 
d="M1987 0v1069h278v-827h471v-242h-749zM1051 0v1069h743v-244h-465v-254h416v-243h-416v-328h-278zM115 0v1069h743v-244h-465v-254h416v-243h-416v-328h-278z" />
    <glyph glyph-name="apple" horiz-adv-x="509" 
d="M256 354q-72 0 -123 49.5t-51 124.5q0 74 51 123t123 49q70 0 121 -49t51 -123q0 -75 -50.5 -124.5t-121.5 -49.5z" />
    <glyph glyph-name="infinity" horiz-adv-x="2387" 
d="M1991 0v1069h278v-1069h-278zM1051 0v1069h743v-244h-465v-254h416v-243h-416v-328h-278zM115 0v1069h743v-244h-465v-254h416v-243h-416v-328h-278z" />
    <glyph glyph-name="notequal" horiz-adv-x="1871" 
d="M1051 0v1069h743v-244h-465v-254h416v-243h-416v-328h-278zM115 0v1069h743v-244h-465v-254h416v-243h-416v-328h-278z" />
    </font>
</defs>
</svg>
