<?xml version="1.0" standalone="no"?>
<!DOCTYPE svg PUBLIC "-//W3C//DTD SVG 1.1//EN" "http://www.w3.org/Graphics/SVG/1.1/DTD/svg11.dtd" >
<svg xmlns="http://www.w3.org/2000/svg" xmlns:xlink="http://www.w3.org/1999/xlink" version="1.1">
<metadata>
Created by FontForge 20170731 at Mon Oct 17 23:34:49 2005
 By Aleksey,,,
(c) 1999 Nick Curtis. All Rights Reserved. Generated by Fontographer 3.52 
</metadata>
<defs>
<font id="Copasetic" horiz-adv-x="300" >
  <font-face 
    font-family="Copasetic"
    font-weight="400"
    font-stretch="normal"
    units-per-em="1000"
    panose-1="0 0 0 0 0 0 0 0 0 0"
    ascent="800"
    descent="-200"
    x-height="753"
    cap-height="753"
    bbox="-79 -193 864 861"
    underline-thickness="50"
    underline-position="-155"
    unicode-range="U+0020-F002"
  />
<missing-glyph 
 />
    <glyph glyph-name=".notdef" 
 />
    <glyph glyph-name="glyph1" horiz-adv-x="0" 
 />
    <glyph glyph-name="glyph2" 
 />
    <glyph glyph-name="space" unicode=" " 
 />
    <glyph glyph-name="space" unicode="&#xa0;" 
 />
    <glyph glyph-name="exclam" unicode="!" horiz-adv-x="121" 
d="M111 41q0 -22 -15.5 -37t-37.5 -15t-37 15t-15 37t15 37.5t37 15.5t37.5 -15.5t15.5 -37.5v0zM100 110h-83v641h83v-641v0z" />
    <glyph glyph-name="quotedbl" unicode="&#x22;" horiz-adv-x="234" 
d="M115 690q-5 -10 -10 -20.5t-9 -20.5q-5 -10 -10 -20.5t-10 -20.5l-32 15l17 37l-8 2t-9 3q-14 7 -22 20t-7 27q0 6 1 12t4 11q7 14 20 22.5t27 7.5q6 0 12 -1t11 -4q14 -7 22 -20t8 -28q0 -3 -0.5 -5.5t-0.5 -5.5q-1 -3 -2 -5.5t-2 -5.5v0zM225 690q-5 -10 -10 -20.5
t-9 -20.5q-5 -10 -10 -20.5t-10 -20.5l-32 15l17 37l-8 2t-9 3q-14 7 -22 20t-7 27q0 6 1 12t4 11q7 14 20 22.5t27 7.5q6 0 12 -1t11 -4q14 -7 22 -20t8 -28q0 -3 -0.5 -5.5t-0.5 -5.5q-1 -3 -2 -5.5t-2 -5.5v0z" />
    <glyph glyph-name="numbersign" unicode="#" horiz-adv-x="500" 
 />
    <glyph glyph-name="dollar" unicode="$" horiz-adv-x="385" 
d="M367 292q0 -59 -35.5 -107.5t-92.5 -65.5v-119h-83v113q-46 8 -83.5 38t-55.5 74l77 31q12 -30 38 -46.5t55 -16.5h6t6 1q15 2 30 9t27 19q11 11 18 25t10 28q0 4 0.5 7.5t0.5 7.5q0 16 -6 30.5t-20 25.5q-17 14 -37.5 24t-40.5 19q-21 9 -41.5 19t-37.5 24
q-19 15 -30.5 35.5t-11.5 48.5q0 45 27.5 79t68.5 44v114h83v-123q26 -12 44 -34t25 -50l-80 -19q-3 14 -15 23.5t-27 9.5q-16 0 -28.5 -11.5t-14.5 -25.5v-2.5v-2.5q0 -6 2.5 -11.5t8.5 -10.5q8 -7 21.5 -13.5t27.5 -12.5q7 -3 13.5 -6t13.5 -6q23 -11 43.5 -22.5
t37.5 -25.5q26 -22 41 -50t15 -68v0z" />
    <glyph glyph-name="percent" unicode="%" horiz-adv-x="500" 
 />
    <glyph glyph-name="ampersand" unicode="&#x26;" horiz-adv-x="640" 
d="M611 335q-24 0 -47 -3.5t-45 -10.5q3 -9 5 -17.5t3 -17.5q2 -9 2.5 -17.5t0.5 -17.5q0 -103 -73.5 -177t-177.5 -74q-103 0 -176.5 74t-73.5 177q0 63 30.5 118t82.5 89q-25 24 -38 56t-13 66q0 71 50.5 122t121.5 51q38 0 73 -16.5t60 -46.5l-64 -52q-13 15 -31 23.5
t-38 8.5q-37 0 -63.5 -26t-26.5 -64q0 -32 21.5 -57.5t55.5 -27.5l2 -82q-61 -7 -101 -54t-40 -108q0 -70 49.5 -119t118.5 -49q72 0 120.5 51.5t47.5 118.5q0 8 -0.5 16.5t-2.5 16.5q-34 -22 -61.5 -52.5t-46.5 -66.5l-73 37q50 98 144 155.5t204 57.5v-82v0z" />
    <glyph glyph-name="quotesingle" unicode="'" horiz-adv-x="131" 
d="M115 690q-5 -10 -10 -20.5t-9 -20.5q-5 -10 -10 -20.5t-10 -20.5l-32 15l17 37l-8 2t-9 3q-14 7 -22 20t-7 27q0 6 1 12t4 11q7 14 20 22.5t27 7.5q6 0 12 -1t11 -4q14 -7 22 -20t8 -28q0 -3 -0.5 -5.5t-0.5 -5.5q-1 -3 -2 -5.5t-2 -5.5v0z" />
    <glyph glyph-name="parenleft" unicode="(" horiz-adv-x="500" 
 />
    <glyph glyph-name="parenright" unicode=")" horiz-adv-x="500" 
 />
    <glyph glyph-name="asterisk" unicode="*" horiz-adv-x="237" 
d="M221 641l-19 -32l-62 36l-1 -71l-36 -1l-1 73l-63 -36l-18 32l64 36l-65 37l19 32l64 -37v73h36l1 -73l62 36l18 -32l-63 -36l64 -37v0z" />
    <glyph glyph-name="plus" unicode="+" horiz-adv-x="500" 
 />
    <glyph glyph-name="comma" unicode="," horiz-adv-x="131" 
d="M115 20l-10 -20t-9 -20q-5 -10 -10 -20.5t-10 -20.5l-32 14l17 37q-4 2 -8 3t-9 3q-14 6 -22 19t-7 27q0 6 1 12t4 11q7 14 20 22.5t27 7.5q6 0 12 -1t11 -4q14 -7 22 -20t8 -28q0 -3 -0.5 -5.5t-0.5 -5.5q-1 -3 -2 -5.5t-2 -5.5v0z" />
    <glyph glyph-name="hyphen" unicode="-" horiz-adv-x="283" 
d="M287 307h-288v83h288v-83v0z" />
    <glyph glyph-name="period" unicode="." horiz-adv-x="121" 
d="M111 41q0 -22 -15.5 -37t-37.5 -15t-37 15t-15 37t15 37.5t37 15.5t37.5 -15.5t15.5 -37.5v0z" />
    <glyph glyph-name="slash" unicode="/" horiz-adv-x="500" 
 />
    <glyph glyph-name="zero" unicode="0" horiz-adv-x="605" 
d="M501 116q-37 -53 -88 -84.5t-110 -31.5t-110 31.5t-89 84.5q-38 55 -57.5 123t-18.5 139q0 70 19 137t57 122q38 53 89 84.5t110 31.5t110 -31.5t88 -84.5q38 -55 57.5 -123t18.5 -139q0 -70 -19 -137t-57 -122v0zM434 163q29 42 44.5 95t16.5 107v6v6q0 58 -15 113.5
t-46 99.5q-26 37 -59.5 58.5t-71.5 21.5q-37 0 -71.5 -21.5t-60.5 -58.5q-29 -42 -44.5 -95t-16.5 -107v-6v-6q0 -58 15 -113.5t46 -99.5q26 -37 60.5 -58.5t71.5 -21.5q38 0 71.5 21.5t59.5 58.5v0z" />
    <glyph glyph-name="one" unicode="1" horiz-adv-x="232" 
d="M219 0h-83v574l-70 -64l-55 60l208 191v-761v0z" />
    <glyph glyph-name="two" unicode="2" horiz-adv-x="471" 
d="M428 0h-407q78 99 156 197.5t156 196.5q17 22 25.5 48t8.5 53v4.5v5.5q-2 31 -15 61t-36 53t-52.5 36t-59.5 15h-5.5h-5.5q-23 0 -46 -6t-43 -19l-43 70q26 16 55.5 25.5t58.5 11.5q5 1 10 1h10q49 -1 95.5 -19.5t83.5 -55.5q38 -37 57 -85.5t18 -98.5q0 -40 -12.5 -79
t-38.5 -72q-52 -65 -103.5 -130t-102.5 -130h236v-83v0z" />
    <glyph glyph-name="three" unicode="3" horiz-adv-x="399" 
d="M381 288q0 -117 -85.5 -202.5t-203.5 -85.5h-12.5h-13.5h-13.5h-12.5v83h12.5h13.5h13.5h12.5q84 0 145 61t61 144q0 80 -52 138.5t-132 66.5q-9 1 -18.5 2t-18.5 2q-10 1 -19.5 2t-18.5 2q17 21 33.5 42t33.5 43q17 21 33.5 42t33.5 42h-155v83h325l-153 -193
q86 -31 138.5 -105.5t52.5 -166.5v0z" />
    <glyph glyph-name="four" unicode="4" horiz-adv-x="502" 
d="M479 177h-42v-177h-82v177h-332l289 576h92l-248 -494h199v133h82v-133h42v-82v0z" />
    <glyph glyph-name="five" unicode="5" horiz-adv-x="407" 
d="M389 288q0 -117 -85.5 -202.5t-202.5 -85.5h-13.5h-12.5h-13.5h-13.5v83h13.5h13.5h12.5h13.5q83 0 144.5 61t61.5 144q0 50 -16 86.5t-44 60.5q-33 29 -79.5 43.5t-99.5 15.5q-6 0 -12 0.5t-12 0.5h-13h-12q14 65 27.5 129.5t26.5 128.5h238v-83h-171l-21 -97
q53 -7 99.5 -25.5t83.5 -50.5q40 -36 63.5 -88t23.5 -121v0z" />
    <glyph glyph-name="six" unicode="6" horiz-adv-x="634" 
d="M605 288q0 -118 -84.5 -203t-203.5 -85q-118 0 -203 85.5t-85 203.5q0 181 123.5 322.5t312.5 141.5v-83q-72 0 -137 -29.5t-114 -82.5q24 9 50 14t53 5q119 0 203.5 -85t84.5 -204v0zM523 288q0 86 -60.5 146t-145.5 60q-84 0 -144 -59.5t-62 -143.5q-1 -85 60 -146.5
t146 -61.5t145.5 60t60.5 145v0z" />
    <glyph glyph-name="seven" unicode="7" horiz-adv-x="421" 
d="M401 753q-30 -87 -60 -172.5t-59 -170.5q-5 -13 -9 -25l-8 -24q-32 -90 -63.5 -180t-63.5 -181l-87 -1l234 671h-266v83h382v0z" />
    <glyph glyph-name="eight" unicode="8" horiz-adv-x="634" 
d="M605 288q0 -118 -84.5 -203t-203.5 -85t-203.5 85t-84.5 203q0 88 49 161t129 106q-6 9 -10 19.5t-6 20.5q-2 7 -2.5 13.5t-0.5 13.5q0 51 35.5 91t93.5 40t93.5 -40t35.5 -90q0 -4 -0.5 -8.5t-0.5 -8.5q-2 -13 -6.5 -26t-12.5 -25q79 -32 129 -104.5t50 -162.5v0z
M523 288q0 86 -60.5 146t-145.5 60t-145.5 -60t-60.5 -146q0 -85 60.5 -145t145.5 -60t145.5 60t60.5 145v0zM364 623q0 20 -13.5 33.5t-33.5 13.5q-19 0 -33 -13.5t-14 -33.5q0 -19 14 -32.5t33 -13.5q20 0 33.5 13.5t13.5 32.5v0z" />
    <glyph glyph-name="nine" unicode="9" horiz-adv-x="634" 
d="M605 464q0 -181 -123.5 -322.5t-312.5 -141.5v83q72 0 137 30t113 82q-23 -9 -49 -13.5t-53 -4.5q-119 0 -203.5 84.5t-84.5 203.5t84.5 203.5t203.5 84.5t203.5 -85t84.5 -204v0zM523 462q1 86 -59.5 147t-146.5 61q-85 0 -145.5 -60t-60.5 -145t60.5 -145.5
t145.5 -60.5q84 0 144.5 59.5t61.5 143.5v0z" />
    <glyph glyph-name="colon" unicode=":" horiz-adv-x="121" 
d="M111 41q0 -22 -15.5 -37t-37.5 -15t-37 15t-15 37t15 37.5t37 15.5t37.5 -15.5t15.5 -37.5v0zM111 201q0 -22 -15.5 -37.5t-37.5 -15.5t-37 15.5t-15 37.5t15 37.5t37 15.5t37.5 -15.5t15.5 -37.5v0z" />
    <glyph glyph-name="semicolon" unicode=";" horiz-adv-x="121" 
d="M115 20l-10 -20t-9 -20q-5 -10 -10 -20.5t-10 -20.5l-32 14l17 37q-4 2 -8 3t-9 3q-14 6 -22 19t-7 27q0 6 1 12t4 11q7 14 20 22.5t27 7.5q6 0 12 -1t11 -4q14 -7 22 -20t8 -28q0 -3 -0.5 -5.5t-0.5 -5.5q-1 -3 -2 -5.5t-2 -5.5v0zM111 201q0 -22 -15.5 -37.5
t-37.5 -15.5t-37 15.5t-15 37.5t15 37.5t37 15.5t37.5 -15.5t15.5 -37.5v0z" />
    <glyph glyph-name="less" unicode="&#x3c;" horiz-adv-x="500" 
 />
    <glyph glyph-name="equal" unicode="=" horiz-adv-x="500" 
 />
    <glyph glyph-name="greater" unicode="&#x3e;" horiz-adv-x="500" 
 />
    <glyph glyph-name="question" unicode="?" horiz-adv-x="373" 
d="M123 41q0 -22 -15.5 -37t-37.5 -15t-37.5 15t-15.5 37t15.5 37.5t37.5 15.5t37.5 -15.5t15.5 -37.5v0zM356 465q0 -106 -69.5 -187.5t-174.5 -97.5v-70h-83v149h10h11h10h10q84 1 144 61t60 145q0 84 -59.5 144t-144.5 61h-38v83h19.5h19.5q118 -1 201.5 -85.5
t83.5 -202.5v0z" />
    <glyph glyph-name="at" unicode="@" horiz-adv-x="863" 
d="M823 363q0 -81 -31 -131.5t-75 -72.5q-11 -5 -23.5 -9t-24.5 -6q-6 -1 -12 -1.5t-12 -0.5q-49 1 -91 29.5t-56 80.5q-1 -2 -2.5 -4t-3.5 -4q-29 -40 -73.5 -73.5t-95.5 -33.5q-4 0 -8.5 0.5t-8.5 0.5q-4 1 -8.5 2t-8.5 2q-49 14 -68 56t-19 89q0 21 3 41.5t8 38.5
q22 78 93.5 135t152.5 75q16 4 32.5 6t32.5 2h31.5h30.5q10 0 16.5 -7.5t6.5 -17.5v-2t-1 -3l-30 -96t-29 -96q-4 -16 -7.5 -33t-3.5 -34q0 -22 7 -42.5t26 -37.5q13 -12 29.5 -19t33.5 -9h5.5h4.5h6.5t7.5 1q10 1 20 4t19 7q34 17 57.5 57t23.5 106q0 143 -102 244
t-245 101t-244.5 -102t-101.5 -245t101.5 -245t244.5 -102q65 0 125 23.5t108 66.5q5 4 9 5.5t8 1.5q10 0 16.5 -6.5t6.5 -15.5q-1 -4 -2.5 -8.5t-6.5 -9.5q-54 -49 -122 -75t-142 -26q-162 0 -277 114.5t-115 276.5t115 277t277 115q161 0 276.5 -114.5t115.5 -275.5v0z
M556 539h-16h-16q-16 0 -33.5 -2.5t-34.5 -7.5q-66 -18 -123.5 -65t-75.5 -109q-5 -16 -8 -34t-3 -37v-6v-6q1 -14 5 -28t11 -26q11 -19 26.5 -27t32.5 -8q6 0 12.5 1t13.5 3q20 6 39 18t34 25l2.5 2.5l2.5 2.5q24 23 43 54t31 65q8 31 17.5 62t19.5 62q5 15 10 30.5
t10 30.5v0z" />
    <glyph glyph-name="A" unicode="A" horiz-adv-x="602" 
d="M574 0h-86l-57 183h-260l-57 -183h-87l58 183h-44v86h70l151 481h78l234 -750v0zM404 269l-103 330l-103 -330h206v0z" />
    <glyph glyph-name="B" unicode="B" horiz-adv-x="384" 
d="M282 85q-39 -39 -91.5 -62t-111.5 -23h-15.5h-15.5h-15.5h-15.5v753h15.5h15.5h15.5h15.5q56 0 92.5 -40t36.5 -90q0 -17 -4.5 -34t-15.5 -34q86 -35 132.5 -110t46.5 -159q0 -6 -0.5 -12t-0.5 -12q-5 -47 -25 -93t-59 -84v0zM285 288q0 79 -53.5 138t-131.5 67v-409
q78 8 131.5 66.5t53.5 137.5v0zM100 581q14 7 20 18.5t6 24.5t-6.5 24t-19.5 18v-85v0z" />
    <glyph glyph-name="C" unicode="C" horiz-adv-x="414" 
d="M395 0q-155 0 -265.5 110.5t-110.5 266.5q0 155 110.5 265.5t265.5 110.5v-83q-121 0 -207.5 -86t-86.5 -207t86.5 -207.5t207.5 -86.5v-83v0z" />
    <glyph glyph-name="D" unicode="D" horiz-adv-x="439" 
d="M433 377q0 -154 -108.5 -264t-262.5 -113h-10h-10h-11h-10v753h10h11h10h10q154 -3 262.5 -113t108.5 -263v0zM350 377q0 107 -70 190t-177 100v-581q107 17 177 100t70 191v0z" />
    <glyph glyph-name="E" unicode="E" horiz-adv-x="462" 
d="M441 -1q-153 3 -262.5 113.5t-109.5 264.5v58.5v58.5h-48v83h48v176h366v-83h-283v-93h288v-83h-288v-58.5v-58.5q0 -120 84 -206t205 -88v-84v0z" />
    <glyph glyph-name="F" unicode="F" horiz-adv-x="431" 
d="M411 494h-256v-494h-82v494h-53v83h53v176h329v-83h-247v-93h256v-83v0z" />
    <glyph glyph-name="G" unicode="G" horiz-adv-x="453" 
d="M433 0h-20.5h-21.5q-153 3 -261.5 113t-108.5 264q0 152 107 262t261 114v-83q-119 -3 -202.5 -88.5t-83.5 -204.5q0 -108 70.5 -191t176.5 -100v408h-114v83h197v-577v0z" />
    <glyph glyph-name="H" unicode="H" horiz-adv-x="508" 
d="M485 0h-83v494h-243v-494h-83v494h-53v83h53v176h83v-176h243v176h83v-753v0z" />
    <glyph glyph-name="I" unicode="I" horiz-adv-x="113" 
d="M97 0h-82v753h82v-753v0z" />
    <glyph glyph-name="J" unicode="J" horiz-adv-x="318" 
d="M304 293q0 -118 -84.5 -204.5t-203.5 -88.5l-2 83q86 2 146.5 63t60.5 147v114.5v115.5v115.5v114.5h83v-114.5v-115.5v-115.5v-114.5v0z" />
    <glyph glyph-name="K" unicode="K" horiz-adv-x="480" 
d="M479 0h-88l-213 541l-73 -81v-460h-82v753h82v-170l154 170h110l-129 -144l239 -609v0z" />
    <glyph glyph-name="L" unicode="L" horiz-adv-x="357" 
d="M341 0h-325v753h83v-670h242v-83v0z" />
    <glyph glyph-name="M" unicode="M" horiz-adv-x="510" 
d="M490 0h-82v607l-158 -124l-158 124v-607h-82v775l240 -188l240 188v-775v0z" />
    <glyph glyph-name="N" unicode="N" horiz-adv-x="373" 
d="M360 0h-82v573q-37 38 -84.5 62.5t-100.5 31.5v-667h-83v753h21.5h20.5q61 -1 119 -19.5t107 -53.5v73h82v-753v0z" />
    <glyph glyph-name="O" unicode="O" horiz-adv-x="780" 
d="M768 377q0 -156 -110.5 -266.5t-265.5 -110.5t-265.5 110.5t-110.5 266.5q0 155 110.5 265.5t265.5 110.5t265.5 -110.5t110.5 -265.5v0zM686 377q0 121 -86 207t-208 86q-121 0 -207.5 -86t-86.5 -207t86.5 -207.5t207.5 -86.5q122 0 208 86.5t86 207.5v0z" />
    <glyph glyph-name="P" unicode="P" horiz-adv-x="374" 
d="M367 465q0 -112 -77 -196t-190 -92v-177h-83v753h15.5h15.5h15.5h15.5q119 0 203.5 -84.5t84.5 -203.5v0zM285 465q0 79 -53 138t-132 66v-409q78 8 131.5 67t53.5 138v0z" />
    <glyph glyph-name="Q" unicode="Q" horiz-adv-x="788" 
d="M772 377q0 -82 -32 -153t-88 -123q22 -22 40.5 -48t33.5 -54l-73 -39q-13 27 -30.5 49.5t-37.5 42.5q-41 -25 -89 -38.5t-100 -13.5q-155 0 -265.5 110.5t-110.5 266.5q0 155 110.5 265.5t265.5 110.5t265.5 -110.5t110.5 -265.5v0zM690 377q0 121 -86 207t-208 86
q-121 0 -207.5 -86t-86.5 -207t86.5 -207.5t207.5 -86.5q31 0 60 6t56 18q-39 22 -82.5 33.5t-89.5 11.5v82q68 0 131.5 -20.5t117.5 -58.5q47 41 74 98t27 124v0z" />
    <glyph glyph-name="R" unicode="R" horiz-adv-x="389" 
d="M376 0q-80 0 -152 33.5t-124 91.5v-125h-82v753h15.5h15.5h15h15q119 0 204 -84.5t85 -203.5q0 -98 -60 -175t-152 -103q40 -49 97.5 -76.5t122.5 -27.5v-83v0zM285 465q0 79 -53 138t-132 66v-409q78 8 131.5 67t53.5 138v0z" />
    <glyph glyph-name="S" unicode="S" horiz-adv-x="318" 
d="M303 240q0 -98 -70 -169t-169 -71v83q65 0 111 46.5t46 110.5v9.5t-1 8.5q-2 26 -12.5 50t-30.5 41q-26 23 -53 46.5t-54 45.5q-28 25 -42 59.5t-14 71.5q0 74 53.5 127.5t128.5 53.5v-83q-41 0 -70 -28.5t-29 -69.5v-6t1 -6q1 -16 7 -31t18 -25l54 -46l54 -46
q35 -31 52.5 -74.5t19.5 -89.5v-4v-4v0z" />
    <glyph glyph-name="T" unicode="T" horiz-adv-x="416" 
d="M397 670h-148v-670h-82v670h-148v83h378v-83v0z" />
    <glyph glyph-name="U" unicode="U" horiz-adv-x="429" 
d="M409 195q0 -80 -57 -137.5t-138 -57.5q-80 0 -137.5 57.5t-57.5 137.5v558h83v-278.5v-279.5q0 -46 33 -79t79 -33q47 0 80 33t33 79v558h82v-278.5v-279.5v0z" />
    <glyph glyph-name="V" unicode="V" horiz-adv-x="555" 
d="M553 753l-238 -753h-78l-238 753h87l190 -612l190 612h87v0z" />
    <glyph glyph-name="W" unicode="W" horiz-adv-x="744" 
d="M734 753l-189 -753l-79 -1l-94 329l-93 -329l-80 1l-188 753h85l144 -589l93 326h79l93 -326l143 589h86v0z" />
    <glyph glyph-name="X" unicode="X" horiz-adv-x="596" 
d="M585 0h-95l-192 331l-192 -331h-95l239 413l-197 340h95l150 -258l149 258h95l-197 -340l240 -413v0z" />
    <glyph glyph-name="Y" unicode="Y" horiz-adv-x="425" 
d="M419 753l-167 -231v-522h-82v522l-167 231h101l107 -147l107 147h101v0z" />
    <glyph glyph-name="Z" unicode="Z" horiz-adv-x="462" 
d="M457 753l-325 -670h264v-83h-395l325 670h-258v83h389v0z" />
    <glyph glyph-name="bracketleft" unicode="[" horiz-adv-x="500" 
 />
    <glyph glyph-name="backslash" unicode="\" horiz-adv-x="500" 
 />
    <glyph glyph-name="bracketright" unicode="]" horiz-adv-x="500" 
 />
    <glyph glyph-name="asciicircum" unicode="^" horiz-adv-x="500" 
 />
    <glyph glyph-name="underscore" unicode="_" horiz-adv-x="630" 
d="M640 -43h-641v43h641v-43v0z" />
    <glyph glyph-name="grave" unicode="`" horiz-adv-x="175" 
d="M170 775l-6 -36l-153 27l6 36l153 -27v0z" />
    <glyph glyph-name="a" unicode="a" horiz-adv-x="488" 
d="M472 0h-82v177h-247v-177h-83v177h-48v82h48v58.5v59.5q0 153 108.5 263t261.5 113h21.5h20.5v-376.5v-376.5v0zM390 259v408q-106 -17 -176.5 -100t-70.5 -190v-59.5v-58.5h247v0z" />
    <glyph glyph-name="b" unicode="b" horiz-adv-x="468" 
d="M453 464q0 -87 -49.5 -160t-129.5 -106q11 -16 15.5 -33.5t4.5 -34.5q0 -50 -36.5 -90t-92.5 -40h-56.5h-57.5v176h-40v83h40v493h57.5h56.5q119 0 203.5 -84.5t84.5 -203.5v0zM198 96q5 5 8 10.5t4 11.5q1 2 1 5v6q0 18 -12 32.5t-34 14.5h-31v-94h4.5h4.5h4h4
q12 0 24.5 2t22.5 12v0zM370 464q0 85 -60 145.5t-145 60.5h-15.5h-15.5v-411h31q85 0 145 60t60 145v0z" />
    <glyph glyph-name="c" unicode="c" horiz-adv-x="674" 
d="M664 120q-53 -56 -124.5 -87t-148.5 -31q-156 0 -266.5 110.5t-110.5 265.5t110.5 265.5t266.5 110.5q77 0 148.5 -30.5t124.5 -87.5l-60 -56q-42 44 -97 68t-116 24q-121 0 -207.5 -86t-86.5 -208q0 -121 86.5 -207.5t207.5 -86.5q61 0 116 24.5t97 68.5l60 -57v0z" />
    <glyph glyph-name="d" unicode="d" horiz-adv-x="453" 
d="M433 377q0 -154 -108.5 -264t-262.5 -113h-10h-10h-11h-10v753h10h11h10h10q154 -3 262.5 -113t108.5 -263v0zM350 377q0 107 -70 190t-177 100v-581q107 17 177 100t70 191v0z" />
    <glyph glyph-name="e" unicode="e" horiz-adv-x="443" 
d="M426 178h-288v-94h283v-82h-366v176h-48v83h48v493h371v-82h-288v-411h288v-83v0z" />
    <glyph glyph-name="f" unicode="f" horiz-adv-x="420" 
d="M400 179h-256v-177h-82v177h-53v82h53v493h329v-82h-247v-411h256v-82v0z" />
    <glyph glyph-name="g" unicode="g" horiz-adv-x="446" 
d="M422 1q-10 1 -20.5 1h-21.5q-153 2 -261.5 112.5t-108.5 263.5q0 152 107.5 262.5t261.5 113.5v-82q-119 -3 -203 -89t-84 -205q0 -107 70.5 -190t176.5 -100v91h-114v82h197v-260v0z" />
    <glyph glyph-name="h" unicode="h" horiz-adv-x="494" 
d="M474 2h-83v176h-243v-176h-83v176h-53v83h53v494h83v-494h243v494h83v-753v0z" />
    <glyph glyph-name="i" unicode="i" horiz-adv-x="113" 
d="M97 0h-82v753h82v-753v0z" />
    <glyph glyph-name="j" unicode="j" horiz-adv-x="304" 
d="M290 175q0 -118 -84.5 -204t-203.5 -87l-2 81q86 2 146.5 63.5t60.5 146.5v144.5v145.5v145.5v144.5h83v-144.5v-145.5v-145.5v-144.5v0z" />
    <glyph glyph-name="k" unicode="k" horiz-adv-x="473" 
d="M472 753l-239 -609l129 -144h-110l-154 170v-170h-82v753h82v-460l73 -81l213 541h88v0z" />
    <glyph glyph-name="l" unicode="l" horiz-adv-x="357" 
d="M341 0h-325v753h83v-670h242v-83v0z" />
    <glyph glyph-name="m" unicode="m" horiz-adv-x="588" 
d="M585 0h-84l-88 603l-119 -126l-118 126l-89 -603h-83l115 782l175 -185l176 185l115 -782v0z" />
    <glyph glyph-name="n" unicode="n" horiz-adv-x="376" 
d="M359 0h-82v533l-178 106v-639h-82v784l260 -155v124h82v-753v0z" />
    <glyph glyph-name="o" unicode="o" horiz-adv-x="284" 
d="M272 625q0 -53 -38.5 -91t-91.5 -38t-91 38t-38 91t38 91t91 38t91.5 -38t38.5 -91v0zM189 625q0 20 -13.5 33.5t-33.5 13.5q-19 0 -33 -13.5t-14 -33.5q0 -19 14 -33t33 -14q20 0 33.5 14t13.5 33v0z" />
    <glyph glyph-name="p" unicode="p" horiz-adv-x="253" 
d="M204 532q-18 -17 -41.5 -27.5t-50.5 -10.5h-8.5h-9.5v-492h-82v752h50h50q27 0 50.5 -10t41.5 -28q20 -19 29 -43t9 -50q0 -25 -9.5 -48.5t-28.5 -42.5v0zM146 658q-11 11 -22 12.5t-24 1.5h-3h-3v-95h9.5h8.5q22 0 35 15t13 34v4t-1 4q-1 7 -4.5 13t-8.5 11v0z" />
    <glyph glyph-name="q" unicode="q" horiz-adv-x="589" 
d="M587 466q0 -110 -74.5 -192t-182.5 -94l-80 -96h209v-82h-387l157 185q-94 24 -156 101.5t-62 177.5q0 119 84.5 203.5t203.5 84.5t203.5 -84.5t84.5 -203.5v0zM504 466q0 85 -60 145.5t-145 60.5q-94 0 -149.5 -64t-55.5 -143v-6.5v-6.5q3 -35 17.5 -69t42.5 -62
q26 -26 57 -40.5t63 -18.5q6 0 11.5 -0.5t11.5 -0.5q79 1 143 56t64 149v0z" />
    <glyph glyph-name="r" unicode="r" horiz-adv-x="429" 
d="M409 2q-58 0 -110 40t-94 113q-31 52 -57 120t-46 149v-422h-83v752h25.5h25.5h24.5h25.5q54 0 92 -38t38 -92q0 -40 -22.5 -73t-59.5 -47q20 -94 47 -172.5t60 -134.5q32 -54 66 -83.5t68 -29.5v-82v0zM154 658q-11 11 -23 12.5t-26 1.5h-1h-2v-94h9.5t8.5 -1
q22 0 35 15t12 34v4t-1 4q-1 7 -4 13t-8 11v0z" />
    <glyph glyph-name="s" unicode="s" horiz-adv-x="491" 
d="M489 252q0 -103 -73 -176.5t-177 -73.5q-76 0 -140 43.5t-93 114.5l77 30q19 -47 61.5 -76.5t94.5 -29.5q69 0 118.5 49.5t49.5 118.5q0 32 -12.5 55.5t-34.5 41.5q-16 14 -38 26t-47 24q-13 7 -26 13t-27 12q-3 1 -6.5 2.5t-6.5 3.5q-52 23 -95 57t-43 100
q0 69 49.5 118t118.5 49q57 0 103 -36t59 -92l-80 -19q-7 29 -30 47t-52 18q-35 0 -60 -25t-25 -60q0 -15 6.5 -26.5t17.5 -19.5q14 -12 35 -22t43 -20q12 -6 23.5 -11t23.5 -11q31 -15 59 -30.5t51 -34.5q35 -29 55.5 -67.5t20.5 -92.5v0z" />
    <glyph glyph-name="t" unicode="t" horiz-adv-x="398" 
d="M397 670h-148v-670h-82v670h-148v83h378v-83v0z" />
    <glyph glyph-name="u" unicode="u" horiz-adv-x="439" 
d="M422 1q-10 1 -20.5 1h-21.5q-153 2 -261.5 112.5t-108.5 263.5v377h82v-94v-94v-95v-94q0 -107 70.5 -190t176.5 -100v667h83v-754v0z" />
    <glyph glyph-name="v" unicode="v" horiz-adv-x="446" 
d="M422 378q0 -153 -108.5 -263.5t-261.5 -112.5h-20.5t-21.5 -1v754h83v-667q107 17 177 100t70 190v94v95v94v94h82v-377v0z" />
    <glyph glyph-name="w" unicode="w" horiz-adv-x="572" 
d="M553 1q-10 1 -20.5 1h-21.5q-70 2 -130.5 36.5t-97.5 93.5q-37 -59 -97.5 -93.5t-130.5 -36.5h-20.5t-21.5 -1v754h82v-665q65 15 106 67.5t41 118.5v479h82v-240v-239q0 -66 41.5 -118.5t105.5 -67.5v665h82v-754v0z" />
    <glyph glyph-name="x" unicode="x" horiz-adv-x="568" 
d="M570 753l-238 -410l199 -343h-95l-151 261l-152 -261h-95l199 343l-238 410h95l191 -328l190 328h95v0z" />
    <glyph glyph-name="y" unicode="y" horiz-adv-x="473" 
d="M475 753l-197 -540v-211h-82v211l-197 540h87l151 -413l150 413h88v0z" />
    <glyph glyph-name="z" unicode="z" horiz-adv-x="462" 
d="M457 753l-325 -670h264v-83h-395l325 670h-258v83h389v0z" />
    <glyph glyph-name="braceleft" unicode="{" horiz-adv-x="500" 
 />
    <glyph glyph-name="bar" unicode="|" horiz-adv-x="500" 
 />
    <glyph glyph-name="braceright" unicode="}" horiz-adv-x="500" 
 />
    <glyph glyph-name="asciitilde" unicode="~" horiz-adv-x="500" 
 />
    <glyph glyph-name="exclamdown" unicode="&#xa1;" horiz-adv-x="121" 
d="M16 448h83v-641h-83v641v0zM5 517q0 22 15.5 37.5t37.5 15.5t37 -15.5t15 -37.5t-15 -37.5t-37 -15.5t-37.5 15.5t-15.5 37.5v0z" />
    <glyph glyph-name="cent" unicode="&#xa2;" horiz-adv-x="292" 
d="M279 111q-13 0 -25.5 1.5t-25.5 3.5v-116h-82v147q-59 35 -96 96t-37 134t37 134t96 95v147h82v-116q13 2 25.5 3.5t25.5 1.5v-82q-76 0 -129.5 -54t-53.5 -129q0 -76 53.5 -130t129.5 -54v-82v0z" />
    <glyph glyph-name="sterling" unicode="&#xa3;" horiz-adv-x="384" 
d="M367 0h-287v177h-63v82h63v37h-63v83h63v42.5v43.5q0 118 84 202.5t203 85.5v-83q-85 0 -145 -60t-60 -145v-43.5v-42.5h104v-83h-104v-37h104v-82h-104v-94h205v-83v0z" />
    <glyph glyph-name="currency" unicode="&#xa4;" horiz-adv-x="542" 
d="M517 696l-31 -83q-24 26 -54.5 41.5t-66.5 15.5q-68 0 -113.5 -49.5t-67.5 -109.5q-3 -8 -6 -17t-5 -17h260l-31 -82h-242v-9v-9v-9.5v-9.5h228l-32 -82h-183q2 -8 5 -17t6 -17q22 -60 67.5 -109.5t113.5 -49.5q23 0 44.5 7t40.5 19v-92q-20 -8 -41 -12.5t-44 -4.5
q-107 0 -177 79.5t-95 175.5q-1 5 -2.5 10.5t-2.5 10.5h-63l31 82h22q0 5 -0.5 9.5t-0.5 9.5q0 4 0.5 9t0.5 9h-53l31 82h32q1 5 2.5 10.5t2.5 10.5q25 96 95 175.5t177 79.5q43 0 81.5 -15.5t70.5 -41.5v0z" />
    <glyph glyph-name="currency" unicode="&#x20ac;" horiz-adv-x="542" 
d="M517 696l-31 -83q-24 26 -54.5 41.5t-66.5 15.5q-68 0 -113.5 -49.5t-67.5 -109.5q-3 -8 -6 -17t-5 -17h260l-31 -82h-242v-9v-9v-9.5v-9.5h228l-32 -82h-183q2 -8 5 -17t6 -17q22 -60 67.5 -109.5t113.5 -49.5q23 0 44.5 7t40.5 19v-92q-20 -8 -41 -12.5t-44 -4.5
q-107 0 -177 79.5t-95 175.5q-1 5 -2.5 10.5t-2.5 10.5h-63l31 82h22q0 5 -0.5 9.5t-0.5 9.5q0 4 0.5 9t0.5 9h-53l31 82h32q1 5 2.5 10.5t2.5 10.5q25 96 95 175.5t177 79.5q43 0 81.5 -15.5t70.5 -41.5v0z" />
    <glyph glyph-name="yen" unicode="&#xa5;" horiz-adv-x="525" 
d="M501 753l-136 -374h52v-83h-82l-14 -37h96v-82h-114v-177h-82v177h-114v82h97l-14 37h-83v83h53l-136 374h87l151 -415l151 415h88v0z" />
    <glyph glyph-name="brokenbar" unicode="&#xa6;" horiz-adv-x="500" 
 />
    <glyph glyph-name="section" unicode="&#xa7;" horiz-adv-x="500" 
 />
    <glyph glyph-name="dieresis" unicode="&#xa8;" horiz-adv-x="230" 
d="M105 793q0 -13 -9 -23t-23 -10q-13 0 -22.5 10t-9.5 23t9.5 22.5t22.5 9.5q14 0 23 -9.5t9 -22.5v0zM190 793q0 -13 -9.5 -23t-22.5 -10t-23 10t-10 23t10 22.5t23 9.5t22.5 -9.5t9.5 -22.5v0z" />
    <glyph glyph-name="copyright" unicode="&#xa9;" horiz-adv-x="500" 
 />
    <glyph glyph-name="ordfeminine" unicode="&#xaa;" horiz-adv-x="218" 
d="M203 428h-44v71h-87v-71h-45v71h-20v45h20v10v11v10v10q0 64 45 110t109 47h9h13v-79v-78v-78v-79v0zM159 544v150q-37 -8 -62 -39t-25 -70v-10v-10v-11v-10h87v0z" />
    <glyph glyph-name="guillemotleft" unicode="&#xab;" horiz-adv-x="303" 
d="M170 255l-155 155l155 155v-95l-60 -60l60 -60v-95v0zM290 255l-155 155l155 155v-95l-60 -60l60 -60v-95v0z" />
    <glyph glyph-name="logicalnot" unicode="&#xac;" horiz-adv-x="500" 
 />
    <glyph glyph-name="sfthyphen" unicode="&#xad;" horiz-adv-x="500" 
 />
    <glyph glyph-name="registered" unicode="&#xae;" horiz-adv-x="500" 
 />
    <glyph glyph-name="overstore" unicode="&#xaf;" 
 />
    <glyph glyph-name="degree" unicode="&#xb0;" horiz-adv-x="500" 
 />
    <glyph glyph-name="plusminus" unicode="&#xb1;" horiz-adv-x="500" 
 />
    <glyph glyph-name="twosuperior" unicode="&#xb2;" horiz-adv-x="500" 
 />
    <glyph glyph-name="threesuperior" unicode="&#xb3;" horiz-adv-x="500" 
 />
    <glyph glyph-name="acute" unicode="&#xb4;" horiz-adv-x="175" 
d="M169 786l-153 -27l-6 36l153 27l6 -36v0z" />
    <glyph glyph-name="mu" unicode="&#xb5;" horiz-adv-x="500" 
 />
    <glyph glyph-name="paragraph" unicode="&#xb6;" horiz-adv-x="500" 
 />
    <glyph glyph-name="middot" unicode="&#xb7;" 
 />
    <glyph glyph-name="cedilla" unicode="&#xb8;" horiz-adv-x="131" 
d="M125 26l-34 -60q15 -10 23 -25.5t8 -33.5q0 -10 -2.5 -19t-7.5 -18q-10 -17 -27 -26t-36 -8q-4 0 -9 0.5t-9 1.5q-5 2 -9.5 3.5t-9.5 4.5l22 34l8 -2t8 -1q12 0 21.5 9t9.5 22v2v1q0 1 -0.5 2t-0.5 2q-1 6 -5 11t-9 9q-7 4 -14.5 8.5t-15.5 9.5l53 93l36 -20v0z" />
    <glyph glyph-name="onesuperior" unicode="&#xb9;" horiz-adv-x="500" 
 />
    <glyph glyph-name="ordmasculine" unicode="&#xba;" horiz-adv-x="331" 
d="M322 601q0 -64 -46 -110.5t-110 -46.5t-110.5 46.5t-46.5 110.5q0 65 46.5 110.5t110.5 45.5t110 -45.5t46 -110.5v0zM277 601q0 46 -32.5 78.5t-78.5 32.5t-79 -32.5t-33 -78.5t33 -79t79 -33t78.5 33t32.5 79v0z" />
    <glyph glyph-name="guillemotright" unicode="&#xbb;" horiz-adv-x="303" 
d="M175 410l-155 -155v95l60 60l-60 60v95l155 -155v0zM295 410l-155 -155v95l60 60l-60 60v95l155 -155v0z" />
    <glyph glyph-name="onequarter" unicode="&#xbc;" horiz-adv-x="500" 
 />
    <glyph glyph-name="onehalf" unicode="&#xbd;" horiz-adv-x="500" 
 />
    <glyph glyph-name="threequarters" unicode="&#xbe;" horiz-adv-x="500" 
 />
    <glyph glyph-name="questiondown" unicode="&#xbf;" horiz-adv-x="373" 
d="M343 301h-10h-10h-11h-10q-84 -1 -144 -61t-60 -145q0 -84 59.5 -143.5t144.5 -60.5l38 -1v-83q-10 1 -19.5 1h-19.5q-118 1 -201.5 85.5t-83.5 201.5q0 107 69.5 188t174.5 97v70h83v-149v0zM355 519q0 -22 -15.5 -37.5t-37.5 -15.5t-37.5 15.5t-15.5 37.5t15.5 37.5
t37.5 15.5t37.5 -15.5t15.5 -37.5v0z" />
    <glyph glyph-name="Agrave" unicode="&#xc0;" horiz-adv-x="569" 
d="M574 0h-86l-57 183h-260l-57 -183h-87l58 183h-44v86h70l151 481h78l234 -750v0zM404 269l-103 330l-103 -330h206v0zM320 795l-6 -36l-153 27l6 36l153 -27v0z" />
    <glyph glyph-name="Aacute" unicode="&#xc1;" horiz-adv-x="569" 
d="M574 0h-86l-57 183h-260l-57 -183h-87l58 183h-44v86h70l151 481h78l234 -750v0zM404 269l-103 330l-103 -330h206v0zM422 792l-153 -27l-6 36l153 27l6 -36v0z" />
    <glyph glyph-name="Acircumflex" unicode="&#xc2;" horiz-adv-x="569" 
d="M574 0h-86l-57 183h-260l-57 -183h-87l58 183h-44v86h70l151 481h78l234 -750v0zM404 269l-103 330l-103 -330h206v0zM404 785l-12 -34l-92 33l-91 -33l-13 34l104 38l104 -38v0z" />
    <glyph glyph-name="Atilde" unicode="&#xc3;" horiz-adv-x="569" 
d="M574 0h-86l-57 183h-260l-57 -183h-87l58 183h-44v86h70l151 481h78l234 -750v0zM404 269l-103 330l-103 -330h206v0zM400 830q-1 -5 -2.5 -13.5t-5.5 -17.5q-6 -14 -19 -25t-37 -11q-11 0 -21.5 3.5t-21.5 9.5q-13 8 -19 11.5t-10 4.5h-3h-3q-3 0 -6 -1t-7 -2
q-5 -3 -10 -9t-7 -17h-38q4 23 13.5 36t19.5 20q12 7 22.5 8t12.5 1q5 0 9.5 -0.5t8.5 -2.5q7 -1 14 -5t16 -9q8 -5 14 -8t11 -4h1h2q10 0 17.5 7.5t10.5 23.5h38v0z" />
    <glyph glyph-name="Adieresis" unicode="&#xc4;" horiz-adv-x="569" 
d="M574 0h-86l-57 183h-260l-57 -183h-87l58 183h-44v86h70l151 481h78l234 -750v0zM404 269l-103 330l-103 -330h206v0zM289 803q0 -13 -9 -23t-23 -10q-13 0 -22.5 10t-9.5 23t9.5 22.5t22.5 9.5q14 0 23 -9.5t9 -22.5v0zM374 803q0 -13 -9.5 -23t-22.5 -10t-23 10t-10 23
t10 22.5t23 9.5t22.5 -9.5t9.5 -22.5v0z" />
    <glyph glyph-name="Aring" unicode="&#xc5;" horiz-adv-x="569" 
d="M574 0h-86l-57 183h-260l-57 -183h-87l58 183h-44v86h70l151 481h78l234 -750v0zM404 269l-103 330l-103 -330h206v0zM352 812q0 -22 -13.5 -36t-36.5 -14q-19 0 -29.5 8.5t-15.5 18.5q-3 7 -4 13t-1 10q0 20 13.5 34.5t36.5 14.5t36.5 -14t13.5 -35v0zM322 812
q0 9 -6 15t-14 6h-1.5h-1.5q-6 -1 -12 -7t-6 -14q0 -10 6 -15t12 -6h1.5h1.5q10 0 15 6.5t5 14.5v0z" />
    <glyph glyph-name="AE" unicode="&#xc6;" horiz-adv-x="723" 
d="M707 83l-2 -83q-76 2 -144 32t-118 81q-49 51 -78.5 119t-29.5 145v117h-171q-12 -27 -18 -56.5t-6 -60.5v-377h-83v377q0 31 5 60t14 57h-60v83h99q11 17 24 33.5t27 31.5q50 51 118 81t144 30h273v-83h-273h-2.5h-2.5h-2.5h-2.5v-93h288v-83h-288v-117
q0 -61 22.5 -113.5t61.5 -92.5t92 -63.5t113 -24.5v0zM335 577v78q-31 -11 -59 -29t-51 -42l-2 -2t-2 -1l-2 -2l-2 -2h118v0z" />
    <glyph glyph-name="Ccedilla" unicode="&#xc7;" horiz-adv-x="414" 
d="M315 26l-34 -60q15 -10 23 -25.5t8 -33.5q0 -10 -2.5 -19t-7.5 -18q-10 -17 -27 -26t-36 -8q-4 0 -9 0.5t-9 1.5q-5 2 -9.5 3.5t-9.5 4.5l22 34l8 -2t8 -1q12 0 21.5 9t9.5 22v2v1q0 1 -0.5 2t-0.5 2q-1 6 -5 11t-9 9q-7 4 -14.5 8.5t-15.5 9.5l53 93l36 -20v0zM395 0
q-155 0 -265.5 110.5t-110.5 266.5q0 155 110.5 265.5t265.5 110.5v-83q-121 0 -207.5 -86t-86.5 -207t86.5 -207.5t207.5 -86.5v-83v0z" />
    <glyph glyph-name="Egrave" unicode="&#xc8;" horiz-adv-x="462" 
d="M441 -1q-153 3 -262.5 113.5t-109.5 264.5v58.5v58.5h-48v83h48v176h366v-83h-283v-93h288v-83h-288v-58.5v-58.5q0 -120 84 -206t205 -88v-84v0zM330 805l-6 -36l-153 27l6 36l153 -27v0z" />
    <glyph glyph-name="Eacute" unicode="&#xc9;" horiz-adv-x="462" 
d="M441 -1q-153 3 -262.5 113.5t-109.5 264.5v58.5v58.5h-48v83h48v176h366v-83h-283v-93h288v-83h-288v-58.5v-58.5q0 -120 84 -206t205 -88v-84v0zM399 786l-153 -27l-6 36l153 27l6 -36v0z" />
    <glyph glyph-name="Ecircumflex" unicode="&#xca;" horiz-adv-x="462" 
d="M441 -1q-153 3 -262.5 113.5t-109.5 264.5v58.5v58.5h-48v83h48v176h366v-83h-283v-93h288v-83h-288v-58.5v-58.5q0 -120 84 -206t205 -88v-84v0zM369 800l-12 -34l-92 33l-91 -33l-13 34l104 38l104 -38v0z" />
    <glyph glyph-name="Edieresis" unicode="&#xcb;" horiz-adv-x="462" 
d="M441 -1q-153 3 -262.5 113.5t-109.5 264.5v58.5v58.5h-48v83h48v176h366v-83h-283v-93h288v-83h-288v-58.5v-58.5q0 -120 84 -206t205 -88v-84v0zM245 793q0 -13 -9 -23t-23 -10q-13 0 -22.5 10t-9.5 23t9.5 22.5t22.5 9.5q14 0 23 -9.5t9 -22.5v0zM330 793
q0 -13 -9.5 -23t-22.5 -10t-23 10t-10 23t10 22.5t23 9.5t22.5 -9.5t9.5 -22.5v0z" />
    <glyph glyph-name="Igrave" unicode="&#xcc;" horiz-adv-x="113" 
d="M97 0h-82v753h82v-753v0zM80 805l-6 -36l-153 27l6 36l153 -27v0z" />
    <glyph glyph-name="Iacute" unicode="&#xcd;" horiz-adv-x="113" 
d="M97 0h-82v753h82v-753v0zM189 786l-153 -27l-6 36l153 27l6 -36v0z" />
    <glyph glyph-name="Icircumflex" unicode="&#xce;" horiz-adv-x="113" 
d="M97 0h-82v753h82v-753v0zM159 780l-12 -34l-92 33l-91 -33l-13 34l104 38l104 -38v0z" />
    <glyph glyph-name="Idieresis" unicode="&#xcf;" horiz-adv-x="113" 
d="M97 0h-82v753h82v-753v0zM45 793q0 -13 -9 -23t-23 -10q-13 0 -22 10t-9 23t9 22.5t22 9.5q14 0 23 -9.5t9 -22.5v0zM130 793q0 -13 -9.5 -23t-22.5 -10t-23 10t-10 23t10 22.5t23 9.5t22.5 -9.5t9.5 -22.5v0z" />
    <glyph glyph-name="Eth" unicode="&#xd0;" horiz-adv-x="552" 
d="M527 377q0 -154 -108.5 -264t-261.5 -113h-20.5h-21.5v177h-90v82h90v494h21.5h20.5q153 -3 261.5 -113t108.5 -263v0zM444 377q0 107 -70 190t-177 100v-408h92v-82h-92v-91q107 17 177 100t70 191v0z" />
    <glyph glyph-name="Ntilde" unicode="&#xd1;" horiz-adv-x="373" 
d="M360 0h-82v573q-37 38 -84.5 62.5t-100.5 31.5v-667h-83v753h21.5h20.5q61 -1 119 -19.5t107 -53.5v73h82v-753v0zM290 831q-1 -5 -2.5 -13.5t-5.5 -17.5q-6 -14 -19 -25t-37 -11q-11 0 -21.5 3.5t-21.5 9.5q-13 8 -19 11.5t-10 4.5h-3h-3q-3 0 -6 -1t-7 -2q-5 -3 -10 -9
t-7 -17h-38q4 23 13.5 36t19.5 20q12 7 22.5 8t12.5 1q5 0 9.5 -0.5t8.5 -2.5q7 -1 14 -5t16 -9q8 -5 14 -8t11 -4h1h2q10 0 17.5 7.5t10.5 23.5h38v0z" />
    <glyph glyph-name="Ograve" unicode="&#xd2;" 
 />
    <glyph glyph-name="Oacute" unicode="&#xd3;" horiz-adv-x="780" 
d="M768 377q0 -156 -110.5 -266.5t-265.5 -110.5t-265.5 110.5t-110.5 266.5q0 155 110.5 265.5t265.5 110.5t265.5 -110.5t110.5 -265.5v0zM686 377q0 121 -86 207t-208 86q-121 0 -207.5 -86t-86.5 -207t86.5 -207.5t207.5 -86.5q122 0 208 86.5t86 207.5v0zM549 786
l-153 -27l-6 36l153 27l6 -36v0z" />
    <glyph glyph-name="Ocircumflex" unicode="&#xd4;" horiz-adv-x="780" 
d="M768 377q0 -156 -110.5 -266.5t-265.5 -110.5t-265.5 110.5t-110.5 266.5q0 155 110.5 265.5t265.5 110.5t265.5 -110.5t110.5 -265.5v0zM686 377q0 121 -86 207t-208 86q-121 0 -207.5 -86t-86.5 -207t86.5 -207.5t207.5 -86.5q122 0 208 86.5t86 207.5v0zM494 787
l-12 -34l-92 33l-91 -33l-13 34l104 38l104 -38v0z" />
    <glyph glyph-name="Otilde" unicode="&#xd5;" horiz-adv-x="780" 
d="M768 377q0 -156 -110.5 -266.5t-265.5 -110.5t-265.5 110.5t-110.5 266.5q0 155 110.5 265.5t265.5 110.5t265.5 -110.5t110.5 -265.5v0zM686 377q0 121 -86 207t-208 86q-121 0 -207.5 -86t-86.5 -207t86.5 -207.5t207.5 -86.5q122 0 208 86.5t86 207.5v0zM500 831
q-1 -5 -2.5 -13.5t-5.5 -17.5q-6 -14 -19 -25t-37 -11q-11 0 -21.5 3.5t-21.5 9.5q-13 8 -19 11.5t-10 4.5h-3h-3q-3 0 -6 -1t-7 -2q-5 -3 -10 -9t-7 -17h-38q4 23 13.5 36t19.5 20q12 7 22.5 8t12.5 1q5 0 9.5 -0.5t8.5 -2.5q7 -1 14 -5t16 -9q8 -5 14 -8t11 -4h1h2
q10 0 17.5 7.5t10.5 23.5h38v0z" />
    <glyph glyph-name="Odieresis" unicode="&#xd6;" horiz-adv-x="780" 
d="M768 377q0 -156 -110.5 -266.5t-265.5 -110.5t-265.5 110.5t-110.5 266.5q0 155 110.5 265.5t265.5 110.5t265.5 -110.5t110.5 -265.5v0zM686 377q0 121 -86 207t-208 86q-121 0 -207.5 -86t-86.5 -207t86.5 -207.5t207.5 -86.5q122 0 208 86.5t86 207.5v0zM375 793
q0 -13 -9 -23t-23 -10q-13 0 -22.5 10t-9.5 23t9.5 22.5t22.5 9.5q14 0 23 -9.5t9 -22.5v0zM460 793q0 -13 -9.5 -23t-22.5 -10t-23 10t-10 23t10 22.5t23 9.5t22.5 -9.5t9.5 -22.5v0z" />
    <glyph glyph-name="multiply" unicode="&#xd7;" horiz-adv-x="500" 
 />
    <glyph glyph-name="Oslash" unicode="&#xd8;" horiz-adv-x="828" 
d="M784 442q3 -16 4.5 -32.5t1.5 -33.5q0 -134 -87 -240t-224 -130q-16 -3 -32.5 -4.5t-32.5 -1.5q-49 1 -94.5 13t-86.5 34l-33 -47h-100l66 94q-46 41 -78.5 96.5t-44.5 120.5q-3 17 -4.5 33.5t-1.5 32.5q1 134 88 240t224 130q17 3 33 4.5t32 1.5q48 -1 94 -12.5
t86 -34.5l32 46h101l-65 -93q47 -41 79 -96.5t43 -120.5v0zM703 428q-8 49 -31.5 90.5t-57.5 72.5l-333 -476q31 -16 65 -24t70 -8q12 0 24 1t25 3q107 19 175 102t67 189q0 12 -1 24.5t-3 25.5v0zM547 638q-31 16 -65 24t-70 8q-12 0 -24 -1t-25 -3q-107 -19 -175.5 -102
t-67.5 -189q0 -12 1 -24.5t3 -25.5q9 -49 32 -90t57 -73l334 476v0z" />
    <glyph glyph-name="Ugrave" unicode="&#xd9;" horiz-adv-x="429" 
d="M409 195q0 -80 -57 -137.5t-138 -57.5q-80 0 -137.5 57.5t-57.5 137.5v558h83v-278.5v-279.5q0 -46 33 -79t79 -33q47 0 80 33t33 79v558h82v-278.5v-279.5v0zM280 785l-6 -36l-153 27l6 36l153 -27v0z" />
    <glyph glyph-name="Uacute" unicode="&#xda;" horiz-adv-x="429" 
d="M409 195q0 -80 -57 -137.5t-138 -57.5q-80 0 -137.5 57.5t-57.5 137.5v558h83v-278.5v-279.5q0 -46 33 -79t79 -33q47 0 80 33t33 79v558h82v-278.5v-279.5v0zM329 786l-153 -27l-6 36l153 27l6 -36v0z" />
    <glyph glyph-name="Ucircumflex" unicode="&#xdb;" horiz-adv-x="429" 
d="M409 195q0 -80 -57 -137.5t-138 -57.5q-80 0 -137.5 57.5t-57.5 137.5v558h83v-278.5v-279.5q0 -46 33 -79t79 -33q47 0 80 33t33 79v558h82v-278.5v-279.5v0zM319 780l-12 -34l-92 33l-91 -33l-13 34l104 38l104 -38v0z" />
    <glyph glyph-name="Udieresis" unicode="&#xdc;" horiz-adv-x="429" 
d="M409 195q0 -80 -57 -137.5t-138 -57.5q-80 0 -137.5 57.5t-57.5 137.5v558h83v-278.5v-279.5q0 -46 33 -79t79 -33q47 0 80 33t33 79v558h82v-278.5v-279.5v0zM196 793q0 -13 -9 -23t-23 -10q-13 0 -22.5 10t-9.5 23t9.5 22.5t22.5 9.5q14 0 23 -9.5t9 -22.5v0zM281 793
q0 -13 -9.5 -23t-22.5 -10t-23 10t-10 23t10 22.5t23 9.5t22.5 -9.5t9.5 -22.5v0z" />
    <glyph glyph-name="Yacute" unicode="&#xdd;" 
 />
    <glyph glyph-name="Thorn" unicode="&#xde;" horiz-adv-x="385" 
d="M367 397q0 -112 -77 -195.5t-190 -91.5v-110h-83v753h83v-68q112 -8 189.5 -91.5t77.5 -196.5v0zM285 397q0 79 -53 138t-132 67v-409q78 8 131.5 66.5t53.5 137.5v0z" />
    <glyph glyph-name="germandbls" unicode="&#xdf;" horiz-adv-x="525" 
d="M501 183q0 -75 -53 -128t-128 -53h-7.5h-6.5h-7.5h-7.5v82h7.5h7.5h6.5h7.5q45 0 71.5 31t26.5 69v6t-1 6q-1 14 -7.5 28t-17.5 26q-13 14 -30 22t-37 9q-43 3 -66 33.5t-23 66.5q0 29 16 55.5t49 38.5q34 12 50 38.5t16 55.5q0 38 -25.5 69.5t-74.5 31.5
q-42 0 -71.5 -29.5t-29.5 -70.5v-344.5v-343.5l-83 -1v507h-59v82h59v50v50q0 75 54 129t130 54q75 0 129 -54t54 -129q0 -58 -33 -105.5t-88 -67.5q-5 -2 -8 -6t-3 -8v-2v-2q0 -5 3 -9.5t10 -5.5q71 -5 120.5 -57.5t49.5 -123.5v0z" />
    <glyph glyph-name="agrave" unicode="&#xe0;" horiz-adv-x="488" 
d="M472 0h-82v177h-247v-177h-83v177h-48v82h48v58.5v59.5q0 153 108.5 263t261.5 113h21.5h20.5v-376.5v-376.5v0zM390 259v408q-106 -17 -176.5 -100t-70.5 -190v-59.5v-58.5h247v0zM390 795l-6 -36l-153 27l6 36l153 -27v0z" />
    <glyph glyph-name="aacute" unicode="&#xe1;" horiz-adv-x="488" 
d="M472 0h-82v177h-247v-177h-83v177h-48v82h48v58.5v59.5q0 153 108.5 263t261.5 113h21.5h20.5v-376.5v-376.5v0zM390 259v408q-106 -17 -176.5 -100t-70.5 -190v-59.5v-58.5h247v0zM469 786l-153 -27l-6 36l153 27l6 -36v0z" />
    <glyph glyph-name="acircumflex" unicode="&#xe2;" horiz-adv-x="488" 
d="M472 0h-82v177h-247v-177h-83v177h-48v82h48v58.5v59.5q0 153 108.5 263t261.5 113h21.5h20.5v-376.5v-376.5v0zM390 259v408q-106 -17 -176.5 -100t-70.5 -190v-59.5v-58.5h247v0zM459 800l-12 -34l-92 33l-91 -33l-13 34l104 38l104 -38v0z" />
    <glyph glyph-name="atilde" unicode="&#xe3;" horiz-adv-x="488" 
d="M472 0h-82v177h-247v-177h-83v177h-48v82h48v58.5v59.5q0 153 108.5 263t261.5 113h21.5h20.5v-376.5v-376.5v0zM390 259v408q-106 -17 -176.5 -100t-70.5 -190v-59.5v-58.5h247v0zM450 831q-1 -5 -2.5 -13.5t-5.5 -17.5q-6 -14 -19 -25t-37 -11q-11 0 -21.5 3.5
t-21.5 9.5q-13 8 -19 11.5t-10 4.5h-3h-3q-3 0 -6 -1t-7 -2q-5 -3 -10 -9t-7 -17h-38q4 23 13.5 36t19.5 20q12 7 22.5 8t12.5 1q5 0 9.5 -0.5t8.5 -2.5q7 -1 14 -5t16 -9q8 -5 14 -8t11 -4h1h2q10 0 17.5 7.5t10.5 23.5h38v0z" />
    <glyph glyph-name="adieresis" unicode="&#xe4;" horiz-adv-x="488" 
d="M472 0h-82v177h-247v-177h-83v177h-48v82h48v58.5v59.5q0 153 108.5 263t261.5 113h21.5h20.5v-376.5v-376.5v0zM390 259v408q-106 -17 -176.5 -100t-70.5 -190v-59.5v-58.5h247v0zM430 810q0 -22 -13.5 -36t-36.5 -14q-19 0 -29.5 8.5t-15.5 18.5q-3 7 -4 13t-1 10
q0 20 13.5 34.5t36.5 14.5t36.5 -14t13.5 -35v0zM400 810q0 9 -6 15t-14 6h-1.5h-1.5q-6 -1 -12 -7t-6 -14q0 -10 6 -15t12 -6h1.5h1.5q10 0 15 6.5t5 14.5v0z" />
    <glyph glyph-name="aring" unicode="&#xe5;" horiz-adv-x="488" 
d="M472 0h-82v177h-247v-177h-83v177h-48v82h48v58.5v59.5q0 153 108.5 263t261.5 113h21.5h20.5v-376.5v-376.5v0zM390 259v408q-106 -17 -176.5 -100t-70.5 -190v-59.5v-58.5h247v0z" />
    <glyph glyph-name="ae" unicode="&#xe6;" horiz-adv-x="770" 
d="M759 177h-289v-95h285v-82h-369v177h-247v-177h-82v177h-49v82h49v58.5v59.5q0 153 108 264t262 112h332v-81h-289v-413h289v-82v0zM386 259v408q-106 -17 -176.5 -100t-70.5 -190v-59.5v-58.5h247v0z" />
    <glyph glyph-name="ccedilla" unicode="&#xe7;" horiz-adv-x="674" 
d="M375 16l-34 -60q15 -10 23 -25.5t8 -33.5q0 -10 -2.5 -19t-7.5 -18q-10 -17 -27 -26t-36 -8q-4 0 -9 0.5t-9 1.5q-5 2 -9.5 3.5t-9.5 4.5l22 34l8 -2t8 -1q12 0 21.5 9t9.5 22v2v1q0 1 -0.5 2t-0.5 2q-1 6 -5 11t-9 9q-7 4 -14.5 8.5t-15.5 9.5l53 93l36 -20v0zM664 120
q-53 -56 -124.5 -87t-148.5 -31q-156 0 -266.5 110.5t-110.5 265.5t110.5 265.5t266.5 110.5q77 0 148.5 -30.5t124.5 -87.5l-60 -56q-42 44 -97 68t-116 24q-121 0 -207.5 -86t-86.5 -208q0 -121 86.5 -207.5t207.5 -86.5q61 0 116 24.5t97 68.5l60 -57v0z" />
    <glyph glyph-name="egrave" unicode="&#xe8;" horiz-adv-x="443" 
d="M426 178h-288v-94h283v-82h-366v176h-48v83h48v493h371v-82h-288v-411h288v-83v0zM300 805l-6 -36l-153 27l6 36l153 -27v0z" />
    <glyph glyph-name="eacute" unicode="&#xe9;" horiz-adv-x="443" 
d="M426 178h-288v-94h283v-82h-366v176h-48v83h48v493h371v-82h-288v-411h288v-83v0zM379 796l-153 -27l-6 36l153 27l6 -36v0z" />
    <glyph glyph-name="ecircumflex" unicode="&#xea;" horiz-adv-x="443" 
d="M426 178h-288v-94h283v-82h-366v176h-48v83h48v493h371v-82h-288v-411h288v-83v0zM349 800l-12 -34l-92 33l-91 -33l-13 34l104 38l104 -38v0z" />
    <glyph glyph-name="edieresis" unicode="&#xeb;" horiz-adv-x="443" 
d="M426 178h-288v-94h283v-82h-366v176h-48v83h48v493h371v-82h-288v-411h288v-83v0zM235 793q0 -13 -9 -23t-23 -10q-13 0 -22.5 10t-9.5 23t9.5 22.5t22.5 9.5q14 0 23 -9.5t9 -22.5v0zM320 793q0 -13 -9.5 -23t-22.5 -10t-23 10t-10 23t10 22.5t23 9.5t22.5 -9.5
t9.5 -22.5v0z" />
    <glyph glyph-name="igrave" unicode="&#xec;" horiz-adv-x="113" 
d="M97 0h-82v753h82v-753v0zM90 805l-6 -36l-153 27l6 36l153 -27v0z" />
    <glyph glyph-name="iacute" unicode="&#xed;" horiz-adv-x="113" 
d="M97 0h-82v753h82v-753v0zM189 786l-153 -27l-6 36l153 27l6 -36v0z" />
    <glyph glyph-name="icircumflex" unicode="&#xee;" horiz-adv-x="113" 
d="M97 0h-82v753h82v-753v0zM160 779l-12 -34l-92 33l-91 -33l-13 34l104 38l104 -38v0z" />
    <glyph glyph-name="idieresis" unicode="&#xef;" horiz-adv-x="113" 
d="M97 0h-82v753h82v-753v0zM45 793q0 -13 -9 -23t-23 -10q-13 0 -22 10t-9 23t9 22.5t22 9.5q14 0 23 -9.5t9 -22.5v0zM130 793q0 -13 -9.5 -23t-22.5 -10t-23 10t-10 23t10 22.5t23 9.5t22.5 -9.5t9.5 -22.5v0z" />
    <glyph glyph-name="eth" unicode="&#xf0;" horiz-adv-x="552" 
d="M527 375q0 -153 -108.5 -263t-261.5 -112h-20.5h-21.5v493h-90v82h90v177h21.5h20.5q153 -3 261.5 -113t108.5 -264v0zM444 375q0 108 -70 191t-177 100v-91h92v-82h-92v-408q107 17 177 100t70 190v0z" />
    <glyph glyph-name="ntilde" unicode="&#xf1;" horiz-adv-x="376" 
d="M359 0h-82v533l-178 106v-639h-82v784l260 -155v124h82v-753v0zM291 820q-1 -5 -2.5 -13.5t-5.5 -17.5q-6 -14 -19 -25t-37 -11q-11 0 -21.5 3.5t-21.5 9.5q-13 8 -19 11.5t-10 4.5h-3h-3q-3 0 -6 -1t-7 -2q-5 -3 -10 -9t-7 -17h-38q4 23 13.5 36t19.5 20q12 7 22.5 8
t12.5 1q5 0 9.5 -0.5t8.5 -2.5q7 -1 14 -5t16 -9q8 -5 14 -8t11 -4h1h2q10 0 17.5 7.5t10.5 23.5h38v0z" />
    <glyph glyph-name="ograve" unicode="&#xf2;" horiz-adv-x="284" 
d="M272 625q0 -53 -38.5 -91t-91.5 -38t-91 38t-38 91t38 91t91 38t91.5 -38t38.5 -91v0zM189 625q0 20 -13.5 33.5t-33.5 13.5q-19 0 -33 -13.5t-14 -33.5q0 -19 14 -33t33 -14q20 0 33.5 14t13.5 33v0zM210 795l-6 -36l-153 27l6 36l153 -27v0z" />
    <glyph glyph-name="oacute" unicode="&#xf3;" horiz-adv-x="284" 
d="M272 625q0 -53 -38.5 -91t-91.5 -38t-91 38t-38 91t38 91t91 38t91.5 -38t38.5 -91v0zM189 625q0 20 -13.5 33.5t-33.5 13.5q-19 0 -33 -13.5t-14 -33.5q0 -19 14 -33t33 -14q20 0 33.5 14t13.5 33v0zM249 786l-153 -27l-6 36l153 27l6 -36v0z" />
    <glyph glyph-name="ocircumflex" unicode="&#xf4;" horiz-adv-x="284" 
d="M272 625q0 -53 -38.5 -91t-91.5 -38t-91 38t-38 91t38 91t91 38t91.5 -38t38.5 -91v0zM189 625q0 20 -13.5 33.5t-33.5 13.5q-19 0 -33 -13.5t-14 -33.5q0 -19 14 -33t33 -14q20 0 33.5 14t13.5 33v0zM246 774l-12 -34l-92 33l-91 -33l-13 34l104 38l104 -38v0z" />
    <glyph glyph-name="otilde" unicode="&#xf5;" horiz-adv-x="284" 
d="M272 625q0 -53 -38.5 -91t-91.5 -38t-91 38t-38 91t38 91t91 38t91.5 -38t38.5 -91v0zM189 625q0 20 -13.5 33.5t-33.5 13.5q-19 0 -33 -13.5t-14 -33.5q0 -19 14 -33t33 -14q20 0 33.5 14t13.5 33v0zM247 826q-1 -5 -2.5 -13.5t-5.5 -17.5q-6 -14 -19 -25t-37 -11
q-11 0 -21.5 3.5t-21.5 9.5q-13 8 -19 11.5t-10 4.5h-3h-3q-3 0 -6 -1t-7 -2q-5 -3 -10 -9t-7 -17h-38q4 23 13.5 36t19.5 20q12 7 22.5 8t12.5 1q5 0 9.5 -0.5t8.5 -2.5q7 -1 14 -5t16 -9q8 -5 14 -8t11 -4h1h2q10 0 17.5 7.5t10.5 23.5h38v0z" />
    <glyph glyph-name="odieresis" unicode="&#xf6;" horiz-adv-x="284" 
d="M272 625q0 -53 -38.5 -91t-91.5 -38t-91 38t-38 91t38 91t91 38t91.5 -38t38.5 -91v0zM189 625q0 20 -13.5 33.5t-33.5 13.5q-19 0 -33 -13.5t-14 -33.5q0 -19 14 -33t33 -14q20 0 33.5 14t13.5 33v0zM131 792q0 -13 -9 -23t-23 -10q-13 0 -22.5 10t-9.5 23t9.5 22.5
t22.5 9.5q14 0 23 -9.5t9 -22.5v0zM216 792q0 -13 -9.5 -23t-22.5 -10t-23 10t-10 23t10 22.5t23 9.5t22.5 -9.5t9.5 -22.5v0z" />
    <glyph glyph-name="divide" unicode="&#xf7;" horiz-adv-x="500" 
 />
    <glyph glyph-name="oslash" unicode="&#xf8;" horiz-adv-x="321" 
d="M306 752l-42 -59q9 -12 15 -25.5t9 -29.5q0 -3 0.5 -5.5t0.5 -5.5q1 -3 1 -5.5v-5.5q0 -46 -30 -82.5t-77 -44.5q-7 -1 -13 -1.5t-12 -0.5q-9 0 -17.5 1t-16.5 4l-9 -12h-100l41 59q-8 12 -14 25.5t-9 29.5q0 3 -0.5 5.5t-0.5 5.5q-1 3 -1 5.5v5.5q0 46 30 82.5t77 44.5
q6 1 11.5 1.5t10.5 0.5q10 0 19 -1.5t18 -3.5l9 12h100v0zM207 624q-3 17 -16 28t-30 11h-4.5t-4.5 -1q-17 -3 -28 -16.5t-11 -30.5v-2t1 -1v-2v-2q3 -17 16 -28t29 -11h4.5t4.5 1q18 3 29 16.5t11 30.5v2v2q-1 0 -1 1v2v0z" />
    <glyph glyph-name="ugrave" unicode="&#xf9;" horiz-adv-x="439" 
d="M422 1q-10 1 -20.5 1h-21.5q-153 2 -261.5 112.5t-108.5 263.5v377h82v-94v-94v-95v-94q0 -107 70.5 -190t176.5 -100v667h83v-754v0zM280 785l-6 -36l-153 27l6 36l153 -27v0z" />
    <glyph glyph-name="uacute" unicode="&#xfa;" horiz-adv-x="439" 
d="M422 1q-10 1 -20.5 1h-21.5q-153 2 -261.5 112.5t-108.5 263.5v377h82v-94v-94v-95v-94q0 -107 70.5 -190t176.5 -100v667h83v-754v0zM329 786l-153 -27l-6 36l153 27l6 -36v0z" />
    <glyph glyph-name="ucircumflex" unicode="&#xfb;" horiz-adv-x="439" 
d="M422 1q-10 1 -20.5 1h-21.5q-153 2 -261.5 112.5t-108.5 263.5v377h82v-94v-94v-95v-94q0 -107 70.5 -190t176.5 -100v667h83v-754v0zM319 780l-12 -34l-92 33l-91 -33l-13 34l104 38l104 -38v0z" />
    <glyph glyph-name="udieresis" unicode="&#xfc;" horiz-adv-x="439" 
d="M422 1q-10 1 -20.5 1h-21.5q-153 2 -261.5 112.5t-108.5 263.5v377h82v-94v-94v-95v-94q0 -107 70.5 -190t176.5 -100v667h83v-754v0zM205 793q0 -13 -9 -23t-23 -10q-13 0 -22.5 10t-9.5 23t9.5 22.5t22.5 9.5q14 0 23 -9.5t9 -22.5v0zM290 793q0 -13 -9.5 -23
t-22.5 -10t-23 10t-10 23t10 22.5t23 9.5t22.5 -9.5t9.5 -22.5v0z" />
    <glyph glyph-name="yacute" unicode="&#xfd;" 
 />
    <glyph glyph-name="thorn" unicode="&#xfe;" horiz-adv-x="385" 
d="M367 355q0 -113 -77.5 -196.5t-189.5 -91.5v-68h-83v753h83v-110q113 -8 190 -91t77 -196v0zM285 355q0 79 -53.5 138t-131.5 66v-409q79 8 132 67t53 138v0z" />
    <glyph glyph-name="ydieresis" unicode="&#xff;" horiz-adv-x="473" 
d="M475 753l-197 -540v-211h-82v211l-197 540h87l151 -413l150 413h88v0zM225 793q0 -13 -9 -23t-23 -10q-13 0 -22.5 10t-9.5 23t9.5 22.5t22.5 9.5q14 0 23 -9.5t9 -22.5v0zM310 793q0 -13 -9.5 -23t-22.5 -10t-23 10t-10 23t10 22.5t23 9.5t22.5 -9.5t9.5 -22.5v0z" />
    <glyph glyph-name="Abreve" unicode="&#x102;" 
 />
    <glyph glyph-name="abreve" unicode="&#x103;" 
 />
    <glyph glyph-name="Aogonek" unicode="&#x104;" 
 />
    <glyph glyph-name="aogonek" unicode="&#x105;" 
 />
    <glyph glyph-name="Cacute" unicode="&#x106;" 
 />
    <glyph glyph-name="cacute" unicode="&#x107;" 
 />
    <glyph glyph-name="Ccaron" unicode="&#x10c;" 
 />
    <glyph glyph-name="ccaron" unicode="&#x10d;" 
 />
    <glyph glyph-name="Dcaron" unicode="&#x10e;" 
 />
    <glyph glyph-name="dcaron" unicode="&#x10f;" 
 />
    <glyph glyph-name="Dslash" unicode="&#x110;" 
 />
    <glyph glyph-name="dslash" unicode="&#x111;" 
 />
    <glyph glyph-name="Eogonek" unicode="&#x118;" 
 />
    <glyph glyph-name="eogonek" unicode="&#x119;" 
 />
    <glyph glyph-name="Ecaron" unicode="&#x11a;" 
 />
    <glyph glyph-name="ecaron" unicode="&#x11b;" 
 />
    <glyph glyph-name="Gbreve" unicode="&#x11e;" 
 />
    <glyph glyph-name="gbreve" unicode="&#x11f;" 
 />
    <glyph glyph-name="Idotaccent" unicode="&#x130;" 
 />
    <glyph glyph-name="dotlessi" unicode="&#x131;" horiz-adv-x="500" 
 />
    <glyph glyph-name="Lacute" unicode="&#x139;" 
 />
    <glyph glyph-name="lacute" unicode="&#x13a;" 
 />
    <glyph glyph-name="Lcaron" unicode="&#x13d;" 
 />
    <glyph glyph-name="lcaron" unicode="&#x13e;" 
 />
    <glyph glyph-name="Ldot" unicode="&#x13f;" 
 />
    <glyph glyph-name="ldot" unicode="&#x140;" 
 />
    <glyph glyph-name="Lslash" unicode="&#x141;" horiz-adv-x="500" 
 />
    <glyph glyph-name="lslash" unicode="&#x142;" horiz-adv-x="500" 
 />
    <glyph glyph-name="Nacute" unicode="&#x143;" 
 />
    <glyph glyph-name="nacute" unicode="&#x144;" 
 />
    <glyph glyph-name="Ncaron" unicode="&#x147;" 
 />
    <glyph glyph-name="ncaron" unicode="&#x148;" 
 />
    <glyph glyph-name="Odblacute" unicode="&#x150;" 
 />
    <glyph glyph-name="odblacute" unicode="&#x151;" 
 />
    <glyph glyph-name="OE" unicode="&#x152;" horiz-adv-x="880" 
d="M864 83l-1 -83q-65 2 -124 24t-106 60q-49 -39 -109 -61.5t-128 -22.5q-155 0 -265.5 110.5t-110.5 266.5q0 155 110.5 265.5t265.5 110.5q25 0 49 -3.5t48 -9.5v13h365v-83h-283v-93h288v-83h-288v-58.5v-58.5q0 -119 84.5 -205.5t204.5 -88.5v0zM574 143
q-38 48 -59.5 108t-21.5 126v58.5v58.5h-49v83h49v77q-23 8 -47.5 12t-49.5 4q-121 0 -207 -86t-86 -207t86 -207.5t207 -86.5q50 0 95.5 16t82.5 44v0z" />
    <glyph glyph-name="oe" unicode="&#x153;" horiz-adv-x="577" 
d="M564 176h-289v-94h283v-82h-365v176h-48v83h48v244q-11 -4 -23 -6.5t-24 -2.5q-54 0 -92 38t-38 91t38 91t92 38q12 0 24 -2t23 -7v9h371v-82h-289v-411h289v-83v0zM193 623q0 20 -14 33.5t-33 13.5t-33 -13.5t-14 -33.5q0 -19 14 -33t33 -14t33 14t14 33v0z" />
    <glyph glyph-name="Racute" unicode="&#x154;" 
 />
    <glyph glyph-name="racute" unicode="&#x155;" 
 />
    <glyph glyph-name="Rcaron" unicode="&#x158;" 
 />
    <glyph glyph-name="rcaron" unicode="&#x159;" 
 />
    <glyph glyph-name="Sacute" unicode="&#x15a;" 
 />
    <glyph glyph-name="sacute" unicode="&#x15b;" 
 />
    <glyph glyph-name="Scedilla" unicode="&#x15e;" 
 />
    <glyph glyph-name="scedilla" unicode="&#x15f;" 
 />
    <glyph glyph-name="Scaron" unicode="&#x160;" horiz-adv-x="500" 
 />
    <glyph glyph-name="scaron" unicode="&#x161;" horiz-adv-x="500" 
 />
    <glyph glyph-name="Tcedilla" unicode="&#x162;" 
 />
    <glyph glyph-name="tcedilla" unicode="&#x163;" 
 />
    <glyph glyph-name="Tcaron" unicode="&#x164;" 
 />
    <glyph glyph-name="tcaron" unicode="&#x165;" 
 />
    <glyph glyph-name="Uring" unicode="&#x16e;" 
 />
    <glyph glyph-name="uring" unicode="&#x16f;" 
 />
    <glyph glyph-name="udblacute" unicode="&#x170;" 
 />
    <glyph glyph-name="Udblacute" unicode="&#x171;" 
 />
    <glyph glyph-name="Ydieresis" unicode="&#x178;" horiz-adv-x="425" 
d="M419 753l-167 -231v-522h-82v522l-167 231h101l107 -147l107 147h101v0zM202 783q0 -13 -9 -23t-23 -10q-13 0 -22.5 10t-9.5 23t9.5 22.5t22.5 9.5q14 0 23 -9.5t9 -22.5v0zM287 783q0 -13 -9.5 -23t-22.5 -10t-23 10t-10 23t10 22.5t23 9.5t22.5 -9.5t9.5 -22.5v0z" />
    <glyph glyph-name="Zacute" unicode="&#x179;" 
 />
    <glyph glyph-name="zacute" unicode="&#x17a;" 
 />
    <glyph glyph-name="Zdot" unicode="&#x17b;" 
 />
    <glyph glyph-name="zdot" unicode="&#x17c;" 
 />
    <glyph glyph-name="Zcaron" unicode="&#x17d;" horiz-adv-x="500" 
 />
    <glyph glyph-name="zcaron" unicode="&#x17e;" horiz-adv-x="500" 
 />
    <glyph glyph-name="florin" unicode="&#x192;" horiz-adv-x="500" 
 />
    <glyph glyph-name="hungarumlaut" unicode="&#x2ba;" horiz-adv-x="500" 
 />
    <glyph glyph-name="tilde" unicode="&#x2c6;" horiz-adv-x="230" 
d="M220 821q-1 -5 -2.5 -13.5t-5.5 -17.5q-6 -14 -19 -25t-37 -11q-11 0 -21.5 3.5t-21.5 9.5q-13 8 -19 11.5t-10 4.5h-3h-3q-3 0 -6 -1t-7 -2q-5 -3 -10 -9t-7 -17h-38q4 23 13.5 36t19.5 20q12 7 22.5 8t12.5 1q5 0 9.5 -0.5t8.5 -2.5q7 -1 14 -5t16 -9q8 -5 14 -8t11 -4
h1h2q10 0 17.5 7.5t10.5 23.5h38v0z" />
    <glyph glyph-name="caron" unicode="&#x2c7;" horiz-adv-x="230" 
d="M219 768l-104 -38l-104 38l13 34l91 -33l92 33l12 -34v0z" />
    <glyph glyph-name="macron" unicode="&#x2c9;" horiz-adv-x="500" 
 />
    <glyph glyph-name="breve" unicode="&#x2d8;" horiz-adv-x="500" 
 />
    <glyph glyph-name="dotaccent" unicode="&#x2d9;" horiz-adv-x="500" 
 />
    <glyph glyph-name="ring" unicode="&#x2da;" horiz-adv-x="230" 
d="M165 800q0 -22 -13.5 -36t-36.5 -14q-19 0 -29.5 8.5t-15.5 18.5q-3 7 -4 13t-1 10q0 20 13.5 34.5t36.5 14.5t36.5 -14t13.5 -35v0zM135 800q0 9 -6 15t-14 6h-1.5h-1.5q-6 -1 -12 -7t-6 -14q0 -10 6 -15t12 -6h1.5h1.5q10 0 15 6.5t5 14.5v0z" />
    <glyph glyph-name="ogonek" unicode="&#x2db;" horiz-adv-x="500" 
 />
    <glyph glyph-name="circumflex" unicode="&#x2dc;" horiz-adv-x="230" 
d="M219 780l-12 -34l-92 33l-91 -33l-13 34l104 38l104 -38v0z" />
    <glyph glyph-name="Gamma" unicode="&#x393;" horiz-adv-x="500" 
 />
    <glyph glyph-name="Theta" unicode="&#x398;" horiz-adv-x="500" 
 />
    <glyph glyph-name="summation" unicode="&#x3a3;" horiz-adv-x="500" 
 />
    <glyph glyph-name="Phi" unicode="&#x3a6;" horiz-adv-x="500" 
 />
    <glyph glyph-name="Omega" unicode="&#x3a9;" horiz-adv-x="500" 
 />
    <glyph glyph-name="alpha" unicode="&#x3b1;" horiz-adv-x="500" 
 />
    <glyph glyph-name="delta" unicode="&#x3b4;" horiz-adv-x="500" 
 />
    <glyph glyph-name="epsilon" unicode="&#x3b5;" horiz-adv-x="500" 
 />
    <glyph glyph-name="pi" unicode="&#x3c0;" horiz-adv-x="500" 
 />
    <glyph glyph-name="sigma" unicode="&#x3c3;" 
 />
    <glyph glyph-name="tau" unicode="&#x3c4;" horiz-adv-x="500" 
 />
    <glyph glyph-name="phi" unicode="&#x3c6;" 
 />
    <glyph glyph-name="endash" unicode="&#x2013;" horiz-adv-x="422" 
d="M429 307h-430v83h430v-83v0z" />
    <glyph glyph-name="emdash" unicode="&#x2014;" horiz-adv-x="630" 
d="M640 307h-641v83h641v-83v0z" />
    <glyph glyph-name="underscoredbl" unicode="&#x2017;" horiz-adv-x="500" 
 />
    <glyph glyph-name="quoteleft" unicode="&#x2018;" horiz-adv-x="131" 
d="M118 639q-7 -14 -20 -22.5t-27 -7.5q-6 0 -12 1t-11 4q-14 7 -22 20t-8 28q0 3 0.5 5.5t0.5 5.5q1 3 2 5.5t2 5.5q5 10 10 20.5t10 20.5q4 10 9 20.5t10 20.5l32 -15l-17 -37q4 -1 8.5 -2t8.5 -3q14 -7 22 -20t7 -27q0 -6 -1 -12t-4 -11v0z" />
    <glyph glyph-name="quoteright" unicode="&#x2019;" horiz-adv-x="131" 
d="M115 690q-5 -10 -10 -20.5t-9 -20.5q-5 -10 -10 -20.5t-10 -20.5l-32 15l17 37l-8 2t-9 3q-14 7 -22 20t-7 27q0 6 1 12t4 11q7 14 20 22.5t27 7.5q6 0 12 -1t11 -4q14 -7 22 -20t8 -28q0 -3 -0.5 -5.5t-0.5 -5.5q-1 -3 -2 -5.5t-2 -5.5v0z" />
    <glyph glyph-name="quotesinglbase" unicode="&#x201a;" horiz-adv-x="131" 
d="M115 20l-10 -20t-9 -20q-5 -10 -10 -20.5t-10 -20.5l-32 14l17 37q-4 2 -8 3t-9 3q-14 6 -22 19t-7 27q0 6 1 12t4 11q7 14 20 22.5t27 7.5q6 0 12 -1t11 -4q14 -7 22 -20t8 -28q0 -3 -0.5 -5.5t-0.5 -5.5q-1 -3 -2 -5.5t-2 -5.5v0z" />
    <glyph glyph-name="quotedblleft" unicode="&#x201c;" horiz-adv-x="234" 
d="M118 639q-7 -14 -20 -22.5t-27 -7.5q-6 0 -12 1t-11 4q-14 7 -22 20t-8 28q0 3 0.5 5.5t0.5 5.5q1 3 2 5.5t2 5.5q5 10 10 20.5t10 20.5q4 10 9 20.5t10 20.5l32 -15l-17 -37q4 -1 8.5 -2t8.5 -3q14 -7 22 -20t7 -27q0 -6 -1 -12t-4 -11v0zM228 639q-7 -14 -20 -22.5
t-27 -7.5q-6 0 -12 1t-11 4q-14 7 -22 20t-8 28q0 3 0.5 5.5t0.5 5.5q1 3 2 5.5t2 5.5q5 10 10 20.5t10 20.5q4 10 9 20.5t10 20.5l32 -15l-17 -37q4 -1 8.5 -2t8.5 -3q14 -7 22 -20t7 -27q0 -6 -1 -12t-4 -11v0z" />
    <glyph glyph-name="quotedblright" unicode="&#x201d;" horiz-adv-x="234" 
d="M115 690q-5 -10 -10 -20.5t-9 -20.5q-5 -10 -10 -20.5t-10 -20.5l-32 15l17 37l-8 2t-9 3q-14 7 -22 20t-7 27q0 6 1 12t4 11q7 14 20 22.5t27 7.5q6 0 12 -1t11 -4q14 -7 22 -20t8 -28q0 -3 -0.5 -5.5t-0.5 -5.5q-1 -3 -2 -5.5t-2 -5.5v0zM225 690q-5 -10 -10 -20.5
t-9 -20.5q-5 -10 -10 -20.5t-10 -20.5l-32 15l17 37l-8 2t-9 3q-14 7 -22 20t-7 27q0 6 1 12t4 11q7 14 20 22.5t27 7.5q6 0 12 -1t11 -4q14 -7 22 -20t8 -28q0 -3 -0.5 -5.5t-0.5 -5.5q-1 -3 -2 -5.5t-2 -5.5v0z" />
    <glyph glyph-name="quotedblbase" unicode="&#x201e;" horiz-adv-x="238" 
d="M115 20l-10 -20t-9 -20q-5 -10 -10 -20.5t-10 -20.5l-32 14l17 37q-4 2 -8 3t-9 3q-14 6 -22 19t-7 27q0 6 1 12t4 11q7 14 20 22.5t27 7.5q6 0 12 -1t11 -4q14 -7 22 -20t8 -28q0 -3 -0.5 -5.5t-0.5 -5.5q-1 -3 -2 -5.5t-2 -5.5v0zM225 20l-10 -20t-9 -20
q-5 -10 -10 -20.5t-10 -20.5l-32 14l17 37q-4 2 -8 3t-9 3q-14 6 -22 19t-7 27q0 6 1 12t4 11q7 14 20 22.5t27 7.5q6 0 12 -1t11 -4q14 -7 22 -20t8 -28q0 -3 -0.5 -5.5t-0.5 -5.5q-1 -3 -2 -5.5t-2 -5.5v0z" />
    <glyph glyph-name="dagger" unicode="&#x2020;" horiz-adv-x="500" 
 />
    <glyph glyph-name="daggerdbl" unicode="&#x2021;" horiz-adv-x="500" 
 />
    <glyph glyph-name="bullet" unicode="&#x2022;" horiz-adv-x="202" 
d="M192 388q0 -36 -26 -62t-62 -26q-37 0 -62 26t-25 62q0 37 25 63t62 26q36 0 62 -26t26 -63v0z" />
    <glyph glyph-name="ellipsis" unicode="&#x2026;" horiz-adv-x="387" 
d="M133 41q0 -22 -15.5 -37t-37.5 -15t-37 15t-15 37t15 37.5t37 15.5t37.5 -15.5t15.5 -37.5v0zM253 41q0 -22 -15.5 -37t-37.5 -15t-37 15t-15 37t15 37.5t37 15.5t37.5 -15.5t15.5 -37.5v0zM373 41q0 -22 -15.5 -37t-37.5 -15t-37 15t-15 37t15 37.5t37 15.5t37.5 -15.5
t15.5 -37.5v0z" />
    <glyph glyph-name="perthousand" unicode="&#x2030;" horiz-adv-x="500" 
 />
    <glyph glyph-name="guilsinglleft" unicode="&#x2039;" horiz-adv-x="189" 
d="M173 255l-155 155l155 155v-95l-60 -60l60 -60v-95v0z" />
    <glyph glyph-name="guilsinglright" unicode="&#x203a;" horiz-adv-x="189" 
d="M172 410l-155 -155v95l60 60l-60 60v95l155 -155v0z" />
    <glyph glyph-name="exclamdbl" unicode="&#x203c;" horiz-adv-x="500" 
 />
    <glyph glyph-name="nsuperior" unicode="&#x207f;" horiz-adv-x="500" 
 />
    <glyph glyph-name="franc" unicode="&#x20a3;" horiz-adv-x="500" 
 />
    <glyph glyph-name="peseta" unicode="&#x20a7;" horiz-adv-x="500" 
 />
    <glyph glyph-name="trademark" unicode="&#x2122;" horiz-adv-x="343" 
d="M147 715h-49v-221h-36v221h-49v37h134v-37v0zM323 494h-37v196l-48 -37l-47 36v-195h-36v271l83 -66l85 66v-271v0z" />
    <glyph glyph-name="arrowleft" unicode="&#x2190;" 
 />
    <glyph glyph-name="arrowup" unicode="&#x2191;" 
 />
    <glyph glyph-name="arrowright" unicode="&#x2192;" horiz-adv-x="500" 
 />
    <glyph glyph-name="arrowdown" unicode="&#x2193;" 
 />
    <glyph glyph-name="arrowboth" unicode="&#x2194;" 
 />
    <glyph glyph-name="arrowupdn" unicode="&#x2195;" 
 />
    <glyph glyph-name="arrowupdnbase" unicode="&#x21a8;" 
 />
    <glyph glyph-name="partialdiff" unicode="&#x2202;" horiz-adv-x="500" 
 />
    <glyph glyph-name="Delta" unicode="&#x2206;" horiz-adv-x="500" 
 />
    <glyph glyph-name="product" unicode="&#x220f;" 
 />
    <glyph glyph-name="minus" unicode="&#x2212;" horiz-adv-x="500" 
 />
    <glyph glyph-name="fraction" unicode="&#x2215;" horiz-adv-x="500" 
 />
    <glyph glyph-name="periodcentered" unicode="&#x2219;" horiz-adv-x="121" 
d="M111 361q0 -22 -15.5 -37.5t-37.5 -15.5t-37 15.5t-15 37.5t15 37.5t37 15.5t37.5 -15.5t15.5 -37.5v0z" />
    <glyph glyph-name="radical" unicode="&#x221a;" horiz-adv-x="500" 
 />
    <glyph glyph-name="infinity" unicode="&#x221e;" 
 />
    <glyph glyph-name="orthogonal" unicode="&#x221f;" 
 />
    <glyph glyph-name="intersection" unicode="&#x2229;" 
 />
    <glyph glyph-name="integral" unicode="&#x222b;" 
 />
    <glyph glyph-name="approxequal" unicode="&#x2248;" horiz-adv-x="500" 
 />
    <glyph glyph-name="notequal" unicode="&#x2260;" horiz-adv-x="500" 
 />
    <glyph glyph-name="equivalence" unicode="&#x2261;" 
 />
    <glyph glyph-name="lessequal" unicode="&#x2264;" horiz-adv-x="500" 
 />
    <glyph glyph-name="greaterequal" unicode="&#x2265;" horiz-adv-x="500" 
 />
    <glyph glyph-name="house" unicode="&#x2302;" 
 />
    <glyph glyph-name="revlogicalnot" unicode="&#x2310;" 
 />
    <glyph glyph-name="integraltp" unicode="&#x2320;" 
 />
    <glyph glyph-name="integralbt" unicode="&#x2321;" 
 />
    <glyph glyph-name="2500" unicode="&#x2500;" 
 />
    <glyph glyph-name="2502" unicode="&#x2502;" 
 />
    <glyph glyph-name="250c" unicode="&#x250c;" 
 />
    <glyph glyph-name="2510" unicode="&#x2510;" 
 />
    <glyph glyph-name="2514" unicode="&#x2514;" 
 />
    <glyph glyph-name="2518" unicode="&#x2518;" 
 />
    <glyph glyph-name="251c" unicode="&#x251c;" 
 />
    <glyph glyph-name="2524" unicode="&#x2524;" 
 />
    <glyph glyph-name="252c" unicode="&#x252c;" 
 />
    <glyph glyph-name="2534" unicode="&#x2534;" 
 />
    <glyph glyph-name="253c" unicode="&#x253c;" 
 />
    <glyph glyph-name="2550" unicode="&#x2550;" 
 />
    <glyph glyph-name="2551" unicode="&#x2551;" 
 />
    <glyph glyph-name="2552" unicode="&#x2552;" 
 />
    <glyph glyph-name="2553" unicode="&#x2553;" 
 />
    <glyph glyph-name="2554" unicode="&#x2554;" 
 />
    <glyph glyph-name="2555" unicode="&#x2555;" 
 />
    <glyph glyph-name="2556" unicode="&#x2556;" 
 />
    <glyph glyph-name="2557" unicode="&#x2557;" 
 />
    <glyph glyph-name="2558" unicode="&#x2558;" 
 />
    <glyph glyph-name="2559" unicode="&#x2559;" 
 />
    <glyph glyph-name="255a" unicode="&#x255a;" 
 />
    <glyph glyph-name="255b" unicode="&#x255b;" 
 />
    <glyph glyph-name="255c" unicode="&#x255c;" 
 />
    <glyph glyph-name="255d" unicode="&#x255d;" 
 />
    <glyph glyph-name="255e" unicode="&#x255e;" 
 />
    <glyph glyph-name="255f" unicode="&#x255f;" 
 />
    <glyph glyph-name="2560" unicode="&#x2560;" 
 />
    <glyph glyph-name="2561" unicode="&#x2561;" 
 />
    <glyph glyph-name="2562" unicode="&#x2562;" 
 />
    <glyph glyph-name="2563" unicode="&#x2563;" 
 />
    <glyph glyph-name="2564" unicode="&#x2564;" 
 />
    <glyph glyph-name="2565" unicode="&#x2565;" 
 />
    <glyph glyph-name="2566" unicode="&#x2566;" 
 />
    <glyph glyph-name="2567" unicode="&#x2567;" 
 />
    <glyph glyph-name="2568" unicode="&#x2568;" 
 />
    <glyph glyph-name="2569" unicode="&#x2569;" 
 />
    <glyph glyph-name="256a" unicode="&#x256a;" 
 />
    <glyph glyph-name="256b" unicode="&#x256b;" 
 />
    <glyph glyph-name="256c" unicode="&#x256c;" 
 />
    <glyph glyph-name="upblock" unicode="&#x2580;" 
 />
    <glyph glyph-name="dnblock" unicode="&#x2584;" 
 />
    <glyph glyph-name="block" unicode="&#x2588;" 
 />
    <glyph glyph-name="lfblock" unicode="&#x258c;" 
 />
    <glyph glyph-name="rtblock" unicode="&#x2590;" 
 />
    <glyph glyph-name="ltshade" unicode="&#x2591;" 
 />
    <glyph glyph-name="shade" unicode="&#x2592;" 
 />
    <glyph glyph-name="dkshade" unicode="&#x2593;" 
 />
    <glyph glyph-name="filledbox" unicode="&#x25a0;" horiz-adv-x="500" 
 />
    <glyph glyph-name="filledrect" unicode="&#x25ac;" 
 />
    <glyph glyph-name="triagup" unicode="&#x25b2;" 
 />
    <glyph glyph-name="triagrt" unicode="&#x25ba;" 
 />
    <glyph glyph-name="triagdn" unicode="&#x25bc;" 
 />
    <glyph glyph-name="triaglf" unicode="&#x25c4;" 
 />
    <glyph glyph-name="lozenge" unicode="&#x25ca;" horiz-adv-x="500" 
 />
    <glyph glyph-name="circle" unicode="&#x25cb;" 
 />
    <glyph glyph-name="invbullet" unicode="&#x25d8;" 
 />
    <glyph glyph-name="invcircle" unicode="&#x25d9;" 
 />
    <glyph glyph-name="smileface" unicode="&#x263a;" 
 />
    <glyph glyph-name="invsmileface" unicode="&#x263b;" 
 />
    <glyph glyph-name="sun" unicode="&#x263c;" 
 />
    <glyph glyph-name="female" unicode="&#x2640;" 
 />
    <glyph glyph-name="male" unicode="&#x2642;" 
 />
    <glyph glyph-name="spade" unicode="&#x2660;" 
 />
    <glyph glyph-name="club" unicode="&#x2663;" 
 />
    <glyph glyph-name="heart" unicode="&#x2665;" 
 />
    <glyph glyph-name="diamond" unicode="&#x2666;" 
 />
    <glyph glyph-name="musicalnote" unicode="&#x266a;" 
 />
    <glyph glyph-name="musicalnotedbl" unicode="&#x266b;" 
 />
    <glyph glyph-name="apple" unicode="&#xf000;" 
 />
    <glyph glyph-name="fi" unicode="&#xf001;" horiz-adv-x="500" 
 />
    <glyph glyph-name="fl" unicode="&#xf002;" horiz-adv-x="500" 
 />
    <glyph glyph-name="glyph131" horiz-adv-x="500" 
 />
    <glyph glyph-name="glyph135" horiz-adv-x="202" 
d="M192 388q0 -36 -26 -62t-62 -26q-37 0 -62 26t-25 62q0 37 25 63t62 26q36 0 62 -26t26 -63v0z" />
    <glyph glyph-name="glyph177" horiz-adv-x="422" 
d="M429 307h-430v83h430v-83v0z" />
    </font>
</defs>
</svg>
